Login or Register
Add to your bookmarks
5.XXX Free Porno Erotika Movies Site Rip-Gold torrent
DOWNLOAD TORRENT STREAM IN HD ►
Category : Misc » Others
Added : 23 Feb 2011  
Seeds : 0
Peers : 1
Hash : c3f0e241d35e807983b5e51222a6826be747e9cf
Size : 1.47 GB
Downloads : 405 times
Secure download hide your personal activity while downloading torrents with btguard

Report Copyright Infringement


[pre]
      *********** ****    ****      ***      ******** *********** ****    *** **********
           *+*     +*+*+* *+*+*+   *+* *+*   *+*    *+*    *+*     *+*+*   *+* *+*        
           +*+     +*+ +*+*+ +*+  +*+   +*+  +*+           +*+     *+*+*+  +*+ +*+        
           +$+     +$+  +*+  +$+ +$++*++$++* *$*           +$+     +$+ +*+ +$+ +$++*++$  
           +$+     +$+       +$+ +$+     +$+ +$+   +$+$    +$+     +$+  +$+$+$ +$+        
           $+$     $+$       $+$ $+$     $+$ $+$    $+$    $+$     $+$   $+$+$ $+$        
       $$$$$$$$$$$ $$$       $$$ $$$     $$$  $$$$$$$$ $$$$$$$$$$$ $$$    $$$$ $$$$$$$$$$    
                                                



                           Another Fine Release Brought to you from - IMAGiNE                  
                                                

***********************************************************************************
                         18 Years Old   2011 TS XViD -
***********************************************************************************

Ripper ...........:IMAGiNE                                        
IMDB Rating.......:4.9/10                            
Video Codec.......:XVID                                            
Release Date......:16/02/11
Audio Codec.......:AC-3                                            
Theatre Date......:14/01/11
Audio Bitrate.....:256                                             Runtime...........:1h 42mn
Subtitles.........:NIL                                             Language..........:ENGLISH
Resolution........:688 x 384                                      


DETAILS:

Video
ID                               : 0
Format                           : MPEG-4 Visual
Format profile                   : Advanced Simple@L5
Format settings, BVOP            : Yes
Format settings, QPel            : No
Format settings, GMC             : No warppoints
Format settings, Matrix          : Default (MPEG)
Muxing mode                      : Packed bitstream
Codec ID                         : XVID
Codec ID/Hint                    : XviD
Duration                         : 1h 42mn
Bit rate                         : 1 786 Kbps
Width                            : 688 pixels
Height                           : 384 pixels
Display aspect ratio             : 16:9
Frame rate                       : 25.000 fps
Color space                      : YUV
Chroma subsampling               : 4:2:0
Bit depth                        : 8 bits
Scan type                        : Progressive
Bits/(Pixel*Frame)               : 0.270
Stream size                      : 1.28 GiB (87%)
Writing library                  : XviD 61

Audio
ID                               : 1
Format                           : AC-3
Format/Info                      : Audio Coding 3
Mode extension                   : CM (complete main)
Codec ID                         : 2000
Duration                         : 1h 42mn
Bit rate mode                    : Constant
Bit rate                         : 256 Kbps
Channel(s)                       : 2 channels
Channel positions                : Front: L R
Sampling rate                    : 48.0 KHz
Bit depth                        : 16 bits
Stream size                      : 188 MiB (12%)
Alignment                        : Aligned on interleaves
Interleave, duration             : 40 ms (1.00 video frame)
Interleave, preload duration     : 512 ms







SOURCES:

VIDEO: Jailbait... Thanks
AUDIO: Thanks matey...

NOTES:

IMAGiNE bringing you another release..........The Dilemma 2011

Here we are with a nice encode of this one for you all. Now for the video we just made a script
containing white balance, rgb eq, sharpness, chroma, brightness, contrast ect. Not a great video, but watchable.
The video was missing in 2 spots for about 30-40 seconds each, but nothing is missed really. The audio
we got from a friend thanks bro... With the audio it was just a matter of syncing it to the video.

Enjoy ;)

SCREENS:


GREETS:

FLAWL3SS,ViSiON,FUSiON,Rx,SecretMyth,BirdFlu,ELEKTRI4KA,SERENiTY and Autotron
And to all the other p2p grps past and present


Looking for these,syncers,cammers,silver supplier,Audio.....Have anything to offer????......
Contact us [email protected]
[/pre]

5.XXX Free Porno Erotika Movies Site Rip-Gold torrent trackers
public - http://tracker.thepiratebay.org/announce

public - udp://tracker.thepiratebay.org:80/announce

public - udp://tracker.openbittorrent.com:80/announce

public - udp://tracker.publicbt.com:80/announce

public - http://tracker.publicbt.com/announce

public - http://tracker.publicbt.org/announce

public - http://exodus.desync.com:6969/announce

public - http://bt1.the9.com:6969/announce

public - http://nyaatorrents.info:3277/announce

5.XXX Free Porno Erotika Movies Site Rip-Gold torrent internal files
  • image 5.XXX Free Porno Erotika Movies Site Rip-Gold
    • image 5 XXX Free Porno Erotika Movies DvDrIpp.rar    1.46 GB
    • image Demonoid.nfo    223 Byte
    • image Torrent Downloaded from Demonoid.com.txt    68 Byte
    • image tracked_by_h33t_com.txt    62 Byte

No comments
You must log in to add a comment.

Počítadlo.cz TurkeyRank.Com - Pagerank Servisi TOPlist