Fuck Hard 18 - Ashlyn Rae (XXX)(iPod,PSP,Zune)

Download Anonymous Download Torrent (1) Download Torrent (2)
Added February 6 2011
Categorymisc
Seeds / Peers2 / 40 Refresh Leechers
Size165.29 MB
Hash369851bd4879bb817cb86658140bc751c503d0c0
Files
224.13 KB Ashlyn Rae Screen.jpg
164.99 MB Ashlyn Rae.m4v
Trackers
http://tracker.thepiratebay.org/announce
udp://tracker.thepiratebay.org:80/announce
udp://tracker.openbittorrent.com:80/announce
udp://tracker.publicbt.com:80/announce
http://tracker.publicbt.com/announce
http://exodus.1337x.org/announce
Description
Screenshot

http://84448b75.drstickyfingers.com

Video
ID                               : 1
Format                           : AVC
Format/Info                      : Advanced Video Codec
Format profile                   : [email protected]
Format settings, CABAC           : No
Format settings, ReFrames        : 2 frames
Codec ID                         : avc1
Codec ID/Info                    : Advanced Video Coding
Duration                         : 46mn 10s
Bit rate mode                    : Variable
Bit rate                         : 400 Kbps
Width                            : 480 pixels
Height                           : 272 pixels
Display aspect ratio             : 16:9
Frame rate mode                  : Variable
Frame rate                       : 23.976 fps
Minimum frame rate               : 23.974 fps
Maximum frame rate               : 23.981 fps
Color space                      : YUV
Chroma subsampling               : 4:2:0
Bit depth                        : 8 bits
Scan type                        : Progressive
Bits/(Pixel*Frame)               : 0.128
Stream size                      : 132 MiB (80%)
Writing library                  : x264 core 112

Audio
ID                               : 2
Format                           : AAC
Format/Info                      : Advanced Audio Codec
Format profile                   : LC
Codec ID                         : 40
Duration                         : 46mn 11s
Bit rate mode                    : Variable
Bit rate                         : 96.0 Kbps
Maximum bit rate                 : 109 Kbps
Channel(s)                       : 2 channels
Channel positions                : Front: L R
Sampling rate                    : 48.0 KHz
Compression mode                 : Lossy
Stream size                      : 31.7 MiB (19%)
Language                         : English

Screenshot

http://84448b75.drstickyfingers.com

Locations no locations

Related

FILE SIZE SEEDS PEERS ADDED
[AussieAss] Lucie Bee (Lucie Likes it Hard / AussieAss.com) Lucie Likes it Hard [2015] - misc Verified 482.15 MB 0 2 17 hours
A Good Day To Die Hard 2013 DVDRip x264 AC3 RoSubbed-playSD - movies Verified 1.03 GB 0 0 1 day
[FaceFucking Facialabuse com] Alora Jaymes Rough Face, Anal, Pussy Fuck 720p - misc Verified 970.15 MB 1 30 1 day
Perfect Anal Princess - Skinny Emo Teen With Pigtails Gets A Hard Anal Fuck And Creampie - misc Verified 192.32 MB 14 14 1 day
PornstarsLikeItBig: Charisma Cappelli & Romi Rain (Foodtruck Fuck Fest) [XXX] x264 - misc Verified 399.32 MB 18 3 1 day
SDDE305 spring hotel always fuck - misc Verified 1.7 GB 1 11 1 day
[MyTeenVideo]Harmony - Teen Slut Harmony Is Always Eager For Hard Cock - misc Verified 622.82 MB 12 22 1 day
[MikesApartment] 2015-09-02 Kittina (Bang hard) [270p][MP4] - misc Verified 189.63 MB 0 12 2 days
[MikesApartment] 2015-09-02 Kittina (Bang hard) [432p][MP4] - misc Verified 345.65 MB 1 8 2 days
Pretty Young Ebony Babe Needs Strong Fuck - misc Verified 299.08 MB 9 11 2 days
MikesApartment - Kittina (Bang hard / RealityKings) NEW September 02, 2015 - misc Verified 345.57 MB 13 27 2 days
Hottie Throats Dick And Fuck In POV Style - misc Verified 305.6 MB 0 0 2 days
CREAMPIETHAIS 149-mew-1-sp [SLIM FIGURE SEXY BUTT TIGHT PUSSY READY TO FUCK!] - misc Verified 375.65 MB 0 0 2 days
Hard Disk Sentinel Pro 4.60.9 Build.7377 Beta [4realtorrentz] - software Verified 20.32 MB 35 9 2 days
Blonde With Ponytails Getting Fucked Hard In Bathroom - misc Verified 143.82 MB 0 0 2 days
Two Busty Horny Girls And One Hard Dick - misc Verified 293.08 MB 1 28 2 days
Hottie Throats Dick And Fuck In POV Style - misc Verified 296.46 MB 0 0 2 days
Hot Teen Moans While Getting Fucked Hard - misc Verified 320.79 MB 1 23 2 days
Threesome Strong Fuck With Two Horny Girls - misc Verified 364.41 MB 1 29 2 days
Walker, Julie Ann-Too Hard to Handle-(Black Knights Inc. #8) - epub - zeke23 - misc Verified 531.2 KB 16 2 2 days