Fuck Hard 18 - Ashlyn Rae (XXX)(iPod,PSP,Zune)

Download Torrent (1) Download Torrent (2)
Added February 6 2011
Categorymisc
Seeds / Peers2 / 40 Refresh Leechers
Size165.29 MB
Hash369851bd4879bb817cb86658140bc751c503d0c0
Files
224.13 KB Ashlyn Rae Screen.jpg
164.99 MB Ashlyn Rae.m4v
Trackers
http://tracker.thepiratebay.org/announce
udp://tracker.thepiratebay.org:80/announce
udp://tracker.openbittorrent.com:80/announce
udp://tracker.publicbt.com:80/announce
http://tracker.publicbt.com/announce
http://exodus.1337x.org/announce
Description
Screenshot

http://84448b75.drstickyfingers.com

Video
ID                               : 1
Format                           : AVC
Format/Info                      : Advanced Video Codec
Format profile                   : [email protected]
Format settings, CABAC           : No
Format settings, ReFrames        : 2 frames
Codec ID                         : avc1
Codec ID/Info                    : Advanced Video Coding
Duration                         : 46mn 10s
Bit rate mode                    : Variable
Bit rate                         : 400 Kbps
Width                            : 480 pixels
Height                           : 272 pixels
Display aspect ratio             : 16:9
Frame rate mode                  : Variable
Frame rate                       : 23.976 fps
Minimum frame rate               : 23.974 fps
Maximum frame rate               : 23.981 fps
Color space                      : YUV
Chroma subsampling               : 4:2:0
Bit depth                        : 8 bits
Scan type                        : Progressive
Bits/(Pixel*Frame)               : 0.128
Stream size                      : 132 MiB (80%)
Writing library                  : x264 core 112

Audio
ID                               : 2
Format                           : AAC
Format/Info                      : Advanced Audio Codec
Format profile                   : LC
Codec ID                         : 40
Duration                         : 46mn 11s
Bit rate mode                    : Variable
Bit rate                         : 96.0 Kbps
Maximum bit rate                 : 109 Kbps
Channel(s)                       : 2 channels
Channel positions                : Front: L R
Sampling rate                    : 48.0 KHz
Compression mode                 : Lossy
Stream size                      : 31.7 MiB (19%)
Language                         : English

Screenshot

http://84448b75.drstickyfingers.com

Locations no locations

Related

FILE SIZE SEEDS PEERS ADDED
Klixen - Hard but sensitive HD 720p - misc Verified 161.6 MB 22 16 11 hours
[CasualTeenSex]Olga - Oral Warm-Up and Sasual Fuck - misc Verified 607.57 MB 5 53 20 hours
JAV Censored DANDY-428 And "Aunt Tutor Who Looked At Hard Boy Ji ‚óŹ Port Is Hot It Is Not Withered E - misc Verified 6.44 GB 135 266 1 day
RealExGirlfriends - Lexi Dona (Coming in for a Morning Fuck) - misc Verified 364.57 MB 41 19 1 day
Blonde and redhead in strong threesome fuck - misc Verified 374.58 MB 1 20 1 day
Hard Spanish Fuck for Pickup Chick Nessa - Agnessa HD 720p - misc Verified 1.28 GB 27 47 1 day
PornMegaLoad.15.05.20.Porsche.Dali.More.To.Fuck.XXX.1080p.MP4.KTR - misc Verified 939.07 MB 5 7 1 day
Hotkinkyjo - Fist and fuck with AlexThorn FullHD 1080p - misc Verified 666 MB 33 32 1 day
PornMegaLoad.15.05.20.Dolly.Little.Fuck.Dolly.XXX.1080p.MP4.KTR - misc Verified 961.07 MB 7 4 1 day
Fucked hard in public 720p (Sensual Jane) - misc Verified 885.15 MB 0 0 2 days
Feels good to fuck Laura Moreno in her fat ass 720p (Laura Moreno) - misc Verified 742.15 MB 0 0 2 days
The Goon - Once Upon a Hard Time 03 (of 04) (2015) (digital) (Minutemen-InnerDemons).cbr - misc Verified 17.42 MB 1 0 2 days
GOMK-83 Squadron heroine hermaphrodite hard lesbian acme brainwash - misc Verified 1.76 GB 1 16 2 days
Fucked Hard 18 Melissa Matthews XXX pornalized com avi - misc Verified 883.3 MB 0 3 2 days
[HarmonyVision]Melissa Black - Country Girl Takes A Hard Ride - misc Verified 416.82 MB 1 0 2 days
BangBus - Taylor Sands - European Babe Filled With Hard Dick on the bus ** NEW (Bang Bros / May 20, 2015) NEW ** - misc Verified 428.65 MB 1 0 2 days
Teddy Bear Fuck - Amazing 18yo Teen Fucked by her BF - misc Verified 198.82 MB 28 14 2 days
Tranny - Busty Shemale paid for Brutal Ass Fuck - misc Verified 255.82 MB 6 22 3 days
[WoodmanCastingX] Evelina Darling (Hard Bed With 2 Boys - 17.05.15) rq (540p).mp4 - misc Verified 404.15 MB 71 68 3 days
Milftoon - Who the Fuck is Alice (Updated) [Adult Comics] - {Almerias} - misc Verified 18.51 MB 13 13 3 days