Fuck Hard 18 - Ashlyn Rae (XXX)(iPod,PSP,Zune)

Download Torrent (1) Download Torrent (2)
Added February 6 2011
Categorymisc
Seeds / Peers2 / 40 Refresh Leechers
Size165.29 MB
Hash369851bd4879bb817cb86658140bc751c503d0c0
Files
224.13 KB Ashlyn Rae Screen.jpg
164.99 MB Ashlyn Rae.m4v
Trackers
http://tracker.thepiratebay.org/announce
udp://tracker.thepiratebay.org:80/announce
udp://tracker.openbittorrent.com:80/announce
udp://tracker.publicbt.com:80/announce
http://tracker.publicbt.com/announce
http://exodus.1337x.org/announce
Description
Screenshot

http://84448b75.drstickyfingers.com

Video
ID                               : 1
Format                           : AVC
Format/Info                      : Advanced Video Codec
Format profile                   : [email protected]
Format settings, CABAC           : No
Format settings, ReFrames        : 2 frames
Codec ID                         : avc1
Codec ID/Info                    : Advanced Video Coding
Duration                         : 46mn 10s
Bit rate mode                    : Variable
Bit rate                         : 400 Kbps
Width                            : 480 pixels
Height                           : 272 pixels
Display aspect ratio             : 16:9
Frame rate mode                  : Variable
Frame rate                       : 23.976 fps
Minimum frame rate               : 23.974 fps
Maximum frame rate               : 23.981 fps
Color space                      : YUV
Chroma subsampling               : 4:2:0
Bit depth                        : 8 bits
Scan type                        : Progressive
Bits/(Pixel*Frame)               : 0.128
Stream size                      : 132 MiB (80%)
Writing library                  : x264 core 112

Audio
ID                               : 2
Format                           : AAC
Format/Info                      : Advanced Audio Codec
Format profile                   : LC
Codec ID                         : 40
Duration                         : 46mn 11s
Bit rate mode                    : Variable
Bit rate                         : 96.0 Kbps
Maximum bit rate                 : 109 Kbps
Channel(s)                       : 2 channels
Channel positions                : Front: L R
Sampling rate                    : 48.0 KHz
Compression mode                 : Lossy
Stream size                      : 31.7 MiB (19%)
Language                         : English

Screenshot

http://84448b75.drstickyfingers.com

Locations no locations

Related

FILE SIZE SEEDS PEERS ADDED
Hard House - Extreme Euphoria Vol.5 2CD - music Verified 180.82 MB 7 4 19 hours
Hard House - Extreme Euphoria Vol.4 3CD - music Verified 268.65 MB 4 5 19 hours
Young Student Girls Get Banged Hard Part 5 - misc Verified 562.57 MB 21 31 1 day
NubileFilms - Group Fuck Fest - Natasha Starr, Scarlet Red [1080p].mp4 - misc Verified 1.19 GB 20 32 1 day
[NOP] Renai Jidai - 03 [Hard Subtitles] [1080p] - anime Verified 1.28 GB 6 6 1 day
[NOP] Renai Jidai - 03 [Hard Subtitles] [720p] - anime Verified 826.82 MB 20 11 1 day
[NOP] Renai Jidai - 02 [Hard Subtitles] [1080p] - anime Verified 1.29 GB 7 6 1 day
[NOP] Renai Jidai - 02 [Hard Subtitles] [720p] - anime Verified 826.57 MB 18 12 1 day
[NOP] Renai Jidai - 01 [Hard Subtitles] [1080p] - anime Verified 1.27 GB 12 5 1 day
[NOP] Renai Jidai - 01 [Hard Subtitles] [720p] - anime Verified 826.07 MB 19 11 1 day
[PixAndVideo] Lolly Gartner - Rich Bitch Id Like to Fuck (04.25.2015) - misc Verified 191.57 MB 2 34 1 day
Hard X - Marley Brinx SD - misc Verified 259.07 MB 29 14 1 day
Step Siblings - AJ and Melody in "Sisters Fuck By Jacuzzi" - [720p] - misc Verified 1.11 GB 1 15 2 days
Hard House - Extreme Euphoria Vol.3 2CD - music Verified 182.32 MB 1 0 2 days
Mia Li Hot Asian Gets Her Ass Drilled Hard.1080p.RKLMylove .mp4 - misc Verified 1.69 GB 13 25 2 days
[Huba] Brooke Banner - Sun Tan Fuck - misc Verified 273.57 MB 13 10 2 days
Mia Li (Hot Asian, Hard Steel, Brutal Torment, and Extreme Orgasms!) - misc Verified 440.15 MB 2 29 2 days
Armoni Monie - Gives the Fuck Machine a Try 1080p - misc Verified 906 MB 9 14 3 days
Voyeur Doctor – Male Nurse Fuck Young Asian [.mp4] - misc Verified 250.57 MB 5 8 3 days
Teen Cumming Hard with Pink Dildo - misc Verified 42.71 MB 14 10 3 days