Fuck Hard 18 - Ashlyn Rae (XXX)(iPod,PSP,Zune)

Download Torrent (1) Download Torrent (2)
Added February 6 2011
Categorymisc
Seeds / Peers2 / 40 Refresh Leechers
Size165.29 MB
Hash369851bd4879bb817cb86658140bc751c503d0c0
Files
224.13 KB Ashlyn Rae Screen.jpg
164.99 MB Ashlyn Rae.m4v
Trackers
http://tracker.thepiratebay.org/announce
udp://tracker.thepiratebay.org:80/announce
udp://tracker.openbittorrent.com:80/announce
udp://tracker.publicbt.com:80/announce
http://tracker.publicbt.com/announce
http://exodus.1337x.org/announce
Description
Screenshot

http://84448b75.drstickyfingers.com

Video
ID                               : 1
Format                           : AVC
Format/Info                      : Advanced Video Codec
Format profile                   : [email protected]
Format settings, CABAC           : No
Format settings, ReFrames        : 2 frames
Codec ID                         : avc1
Codec ID/Info                    : Advanced Video Coding
Duration                         : 46mn 10s
Bit rate mode                    : Variable
Bit rate                         : 400 Kbps
Width                            : 480 pixels
Height                           : 272 pixels
Display aspect ratio             : 16:9
Frame rate mode                  : Variable
Frame rate                       : 23.976 fps
Minimum frame rate               : 23.974 fps
Maximum frame rate               : 23.981 fps
Color space                      : YUV
Chroma subsampling               : 4:2:0
Bit depth                        : 8 bits
Scan type                        : Progressive
Bits/(Pixel*Frame)               : 0.128
Stream size                      : 132 MiB (80%)
Writing library                  : x264 core 112

Audio
ID                               : 2
Format                           : AAC
Format/Info                      : Advanced Audio Codec
Format profile                   : LC
Codec ID                         : 40
Duration                         : 46mn 11s
Bit rate mode                    : Variable
Bit rate                         : 96.0 Kbps
Maximum bit rate                 : 109 Kbps
Channel(s)                       : 2 channels
Channel positions                : Front: L R
Sampling rate                    : 48.0 KHz
Compression mode                 : Lossy
Stream size                      : 31.7 MiB (19%)
Language                         : English

Screenshot

http://84448b75.drstickyfingers.com

Locations no locations

Related

FILE SIZE SEEDS PEERS ADDED
JAV Censored AP-192 Career Woman Reason Buttobi Exposed Your Hard Career Woman Is A Business Trip Of - misc Verified 1.67 GB 21 30 19 hours
Ride Me Hard NEW 2015 ANAL XXX  DVD Rip - misc Verified 1.23 GB 0 0 22 hours
GlamourModelsGoneBad 15 02 23 Nikita Denise Babe With Tig Ol Bitties Fucked Hard [MP4-YAPG] [.mp4] - misc Verified 515.2 MB 0 5 1 day
A Fuck For A Fare (2015) DVDRip - misc Verified 1.37 GB 4 17 1 day
[FakeHospital] Blonde patient wants hard sex from her doctor (fh1126 - 28.02.15) rq.mp4 - misc Verified 767.3 MB 15 24 1 day
LeluLove 12 07 28 SuperSex Webcam Masturbation Fuck XXX 1080p WMV-TBP - misc Verified 478.25 MB 0 0 1 day
Dave Till, Flaremode & Hard Lights - Drill Machine (Original Mix).mp3 [EDM RG] *mousR - music Verified 11.2 MB 0 3 1 day
PornMegaLoad 15 02 27 Amy Anderssen If The Bra Fits Fuck Amys Tits XXX 1080p MP4-KTR - misc Verified 1.46 GB 1 22 1 day
PrinceYahshuaOfficial - Jay Rose And Prince Yahshua - Fuck Me Then Go! ** NEW (August 23, 2014) NEW ** - misc Verified 216.57 MB 2 0 1 day
Hard S02 E04 - Hardcoded Eng Subs - Sno - series Verified 249.82 MB 6 7 2 days
Hard S02 E03 - Hardcoded Eng Subs - Sno - series Verified 259.65 MB 3 3 2 days
[MyDirtyHobby] Young-Dev0tion - His fuck pleasure [.wmv] - misc Verified 256.07 MB 7 23 2 days
DDT-482 Asshole Spread-Limit Repeated Anal Fuck - Sayo Arimoto 1 19 15 Censored 404p - misc Verified 1.28 GB 1 10 2 days
Hard X -  Car Wash Slut XXX Interacial Threesomee - Anikka Albrite - misc Verified 468.15 MB 12 21 3 days
VA - Hard Bass 2015 EP [B2SR2015006] [b2s Records] [EDM RG] *mousR - music Verified 48.8 MB 7 0 3 days
How I Seduce and Fuck Girls 2 - Dona Bell.avi - misc Verified 236.82 MB 21 22 3 days
Sexually Broken--Redheaded Violet Monroe strictly shackled and utterly destroyed by hard cock! Brutal deepthroat! Violet Monroe Jack Hammer Owen Gray High - misc Verified 849.3 MB 15 78 3 days
[BigTitsAtSchool] February 2015 - Mandy Haze - Wrong Dorm Right Girl - great fuck in dormroom - 480p [.mp4] - misc Verified 346.32 MB 32 34 3 days
BRAZZERS - Real Wife Stories - Fuck Me Silly - Monique Alexander [SM128] mkv - misc Verified 182.32 MB 1 94 3 days
Fuck My Ass 4 XXX DVDRip x264-Pr0nStarS - misc Verified 1.44 GB 13 44 3 days