Fuck Hard 18 - Ashlyn Rae (XXX)(iPod,PSP,Zune)

Download Torrent (1) Download Torrent (2)
Added February 6 2011
Categorymisc
Seeds / Peers2 / 40 Refresh Leechers
Size165.29 MB
Hash369851bd4879bb817cb86658140bc751c503d0c0
Files
224.13 KB Ashlyn Rae Screen.jpg
164.99 MB Ashlyn Rae.m4v
Trackers
http://tracker.thepiratebay.org/announce
udp://tracker.thepiratebay.org:80/announce
udp://tracker.openbittorrent.com:80/announce
udp://tracker.publicbt.com:80/announce
http://tracker.publicbt.com/announce
http://exodus.1337x.org/announce
Description
Screenshot

http://84448b75.drstickyfingers.com

Video
ID                               : 1
Format                           : AVC
Format/Info                      : Advanced Video Codec
Format profile                   : [email protected]
Format settings, CABAC           : No
Format settings, ReFrames        : 2 frames
Codec ID                         : avc1
Codec ID/Info                    : Advanced Video Coding
Duration                         : 46mn 10s
Bit rate mode                    : Variable
Bit rate                         : 400 Kbps
Width                            : 480 pixels
Height                           : 272 pixels
Display aspect ratio             : 16:9
Frame rate mode                  : Variable
Frame rate                       : 23.976 fps
Minimum frame rate               : 23.974 fps
Maximum frame rate               : 23.981 fps
Color space                      : YUV
Chroma subsampling               : 4:2:0
Bit depth                        : 8 bits
Scan type                        : Progressive
Bits/(Pixel*Frame)               : 0.128
Stream size                      : 132 MiB (80%)
Writing library                  : x264 core 112

Audio
ID                               : 2
Format                           : AAC
Format/Info                      : Advanced Audio Codec
Format profile                   : LC
Codec ID                         : 40
Duration                         : 46mn 11s
Bit rate mode                    : Variable
Bit rate                         : 96.0 Kbps
Maximum bit rate                 : 109 Kbps
Channel(s)                       : 2 channels
Channel positions                : Front: L R
Sampling rate                    : 48.0 KHz
Compression mode                 : Lossy
Stream size                      : 31.7 MiB (19%)
Language                         : English

Screenshot

http://84448b75.drstickyfingers.com

Locations no locations

Related

FILE SIZE SEEDS PEERS ADDED
Sucking The 70s: Back In The Saddle Again (2006) 2CD / V0 > Cover Versions > Hard Rock > Heavy Metal > Stoner Rock # DrBN - music Verified 253.57 MB 31 11 1 day
TrannySurprise - Bianca Vitoria (I lick you fuck) [.mp4] - misc Verified 310.07 MB 16 15 1 day
[BurningAngel] - Sierra Cure - Hide And Go Fuck - ** NEW 27 JUNE 2015 NEW ** - misc Verified 344.07 MB 26 26 1 day
[FakeAgent] Anabelle (Cute girl with big natural tits fucked hard in office - 27.06.15) rq.mp4 - misc Verified 359.15 MB 48 76 1 day
MeetSuckAndFuck - Olivia (Steamy hook up fuck with a hot dancer) - misc Verified 190.57 MB 6 2 2 days
[BurningAngel]Sierra Cure - Hide And Go Fuck ** New 27.06.2015 ** [.mp4] - misc Verified 344.07 MB 10 32 2 days
BabyGotBoobs - Valerie Fox - Plump Tits and Hard Nips NEW (BRAZZERS June 25, 2015).mp4 - misc Verified 174.32 MB 6 13 2 days
[Brazzers Exxtra] 2015-06-23 Alex Little, Marsha May (Tiny Chicks Take Big Hard Dick) [720p][MP4] - misc Verified 2.32 GB 14 56 3 days
Instant Incest - Mommy, teach me how to fuck + Special care for horny daddy [Adult 3D Comics] - {Almerias} - misc Verified 21.48 MB 56 13 3 days
[DigitalSin] Petite Karlin fucked hard [.wmv] - misc Verified 300.07 MB 1 0 3 days
[BabyGotBoobs] Brazzers - Valerie fox (Plump Tits and Hard Nips/NEW **25.06.15 **) [.mp4] - misc Verified 476.82 MB 3 13 4 days
BabyGotBoobs - Valerie Fox (Plump Tits and Hard Nips / 06.25.2015) ** NEW June 25, 2015 ** SD MP4s - misc Verified 254.57 MB 33 13 4 days
Baby Got Boobs - Valerie Fox { Plump Tits and Hard Nips - 06.25.2015 - Brazzers } ** NEW June 25, 2015 ** - misc Verified 254.57 MB 36 29 4 days
BabyGotBoobs 15 06 25 Valerie Fox Plump Tits And Hard Nips 1080p MP4-KTR - misc Verified 2.63 GB 1 6 4 days
SDDE-350 Nurse Fuck Clinic (Censored) [ORC RAPE DUNGEON] - misc Verified 2.34 GB 1 15 4 days
[DorcelClub] Jade Laroche - Discovers Hard Sex In Paris[.mp4] - misc Verified 141.07 MB 13 27 4 days
Baby Got Boobs - Valerie Fox { Plump Tits and Hard Nips - 06.25.2015 - Brazzers } ** NEW June 25, 2015 ** 1080p - misc Verified 4.6 MB 8 0 4 days
Baby Got Boobs - Valerie Fox { Plump Tits and Hard Nips - 06.25.2015 - Brazzers } ** NEW June 25, 2015 ** 720p - misc Verified 1.77 GB 7 6 4 days
[woodmancastingx] ASPEN - HARD - SM ROOM + 2 [.mp4] - misc Verified 340.57 MB 1 0 4 days
Lawrence Block_Borderline (Hard Case Crime) EPUB + MOBI - misc Verified 2.22 MB 1 0 4 days