Fuck Hard 18 - Ashlyn Rae (XXX)(iPod,PSP,Zune)

Download Torrent (1) Download Torrent (2)
Added February 6 2011
Categorymisc
Seeds / Peers2 / 40 Refresh Leechers
Size165.29 MB
Hash369851bd4879bb817cb86658140bc751c503d0c0
Files
224.13 KB Ashlyn Rae Screen.jpg
164.99 MB Ashlyn Rae.m4v
Trackers
http://tracker.thepiratebay.org/announce
udp://tracker.thepiratebay.org:80/announce
udp://tracker.openbittorrent.com:80/announce
udp://tracker.publicbt.com:80/announce
http://tracker.publicbt.com/announce
http://exodus.1337x.org/announce
Description
Screenshot

http://84448b75.drstickyfingers.com

Video
ID                               : 1
Format                           : AVC
Format/Info                      : Advanced Video Codec
Format profile                   : [email protected]
Format settings, CABAC           : No
Format settings, ReFrames        : 2 frames
Codec ID                         : avc1
Codec ID/Info                    : Advanced Video Coding
Duration                         : 46mn 10s
Bit rate mode                    : Variable
Bit rate                         : 400 Kbps
Width                            : 480 pixels
Height                           : 272 pixels
Display aspect ratio             : 16:9
Frame rate mode                  : Variable
Frame rate                       : 23.976 fps
Minimum frame rate               : 23.974 fps
Maximum frame rate               : 23.981 fps
Color space                      : YUV
Chroma subsampling               : 4:2:0
Bit depth                        : 8 bits
Scan type                        : Progressive
Bits/(Pixel*Frame)               : 0.128
Stream size                      : 132 MiB (80%)
Writing library                  : x264 core 112

Audio
ID                               : 2
Format                           : AAC
Format/Info                      : Advanced Audio Codec
Format profile                   : LC
Codec ID                         : 40
Duration                         : 46mn 11s
Bit rate mode                    : Variable
Bit rate                         : 96.0 Kbps
Maximum bit rate                 : 109 Kbps
Channel(s)                       : 2 channels
Channel positions                : Front: L R
Sampling rate                    : 48.0 KHz
Compression mode                 : Lossy
Stream size                      : 31.7 MiB (19%)
Language                         : English

Screenshot

http://84448b75.drstickyfingers.com

Locations no locations

Related

FILE SIZE SEEDS PEERS ADDED
Indian Girl Outside Fuck - misc Verified 126.16 MB 1 0 17 hours
[DirtyBlondeTranssexuals] TS Sami Price and TS Nina Lawless Fuck Raw! 720p - misc Verified 575.3 MB 18 45 17 hours
JAV Censored MIGD-634 Bukkake Creampie Anal Fuck! - Yu Konishi - misc Verified 1.11 GB 80 80 20 hours
18YearsOld - Sensi Pearl - Skinny Sensi Fucked Hard - misc Verified 579.07 MB 135 481 20 hours
18YearsOld - Allie James (Real Ex's Final Fuck) February 23, 2012 - misc Verified 310.15 MB 17 54 1 day
Mommy Got Boobs - 01 26 15 - Sasha Sean - Fuck Me If You Want My Daughter - 1080p - misc Verified 1.84 GB 1 31 1 day
Mommy Got Boobs - 01 26 15 - Sasha Sean - Fuck Me If You Want My Daughter - 720p - misc Verified 1.23 GB 1 12 1 day
[CumLouder] - LivingWithaPornstar - Candela X, Moisex - Born To Fuck ** Jan 26, 2015** [.mp4] - misc Verified 381.65 MB 16 27 1 day
Chaturbate Goldengoddessxxx Fuck and Facial - misc Verified 115.91 MB 7 9 1 day
MommyGotBoobs - Sasha Sean (Fuck Me If You Want My Daughter / 01.26.2015) ** NEW January 26, 2015 ** SD MP4s - misc Verified 178.07 MB 173 642 1 day
Hard X - Jada Stevens.mp4 - misc Verified 952.3 MB 1 0 1 day
Killergram - Megan Coxxx - Fuck me on my Lunch Break 28-04-2012 - misc Verified 199.82 MB 19 13 1 day
TS Sami Price and TS Nina Lawless / Fuck Raw! (2015) SiteRip - misc Verified 426.15 MB 19 12 1 day
CHATURBATE Soraandkairi Fuck and facial - misc Verified 166.07 MB 1 25 2 days
nbsp Hard Stuffed Bottoms - 540p { The Rat Bastards } - misc Verified 1.71 GB 0 6 2 days
PetiteHDPorn - Lindsey Woods (Hot Fuck) [720p] - misc Verified 676.32 MB 47 83 2 days
Sexy mature babe Charlotte enjoys an anal fuck - misc Verified 147.57 MB 1 60 3 days
ALURAJENSONXXX - Brandie Mae And Alura Jenson - Alura Jenson in Fuck Arrest with Brandie Mae ** NEW (January 23, 2015) NEW ** - misc Verified 349.65 MB 25 16 3 days
Molly Jane - Big Titty Public Fuck HD 1080p - misc Verified 1.45 GB 6 15 3 days
BRAZZERS - Real Wife Stories - Fuck Affair - Monique Alexander [SM128] mkv - misc Verified 187.32 MB 1 63 3 days