Fuck Hard 18 - Ashlyn Rae (XXX)(iPod,PSP,Zune)

Download Torrent (1) Download Torrent (2)
Added February 6 2011
Categorymisc
Seeds / Peers2 / 40 Refresh Leechers
Size165.29 MB
Hash369851bd4879bb817cb86658140bc751c503d0c0
Files
224.13 KB Ashlyn Rae Screen.jpg
164.99 MB Ashlyn Rae.m4v
Trackers
http://tracker.thepiratebay.org/announce
udp://tracker.thepiratebay.org:80/announce
udp://tracker.openbittorrent.com:80/announce
udp://tracker.publicbt.com:80/announce
http://tracker.publicbt.com/announce
http://exodus.1337x.org/announce
Description
Screenshot

http://84448b75.drstickyfingers.com

Video
ID                               : 1
Format                           : AVC
Format/Info                      : Advanced Video Codec
Format profile                   : [email protected]
Format settings, CABAC           : No
Format settings, ReFrames        : 2 frames
Codec ID                         : avc1
Codec ID/Info                    : Advanced Video Coding
Duration                         : 46mn 10s
Bit rate mode                    : Variable
Bit rate                         : 400 Kbps
Width                            : 480 pixels
Height                           : 272 pixels
Display aspect ratio             : 16:9
Frame rate mode                  : Variable
Frame rate                       : 23.976 fps
Minimum frame rate               : 23.974 fps
Maximum frame rate               : 23.981 fps
Color space                      : YUV
Chroma subsampling               : 4:2:0
Bit depth                        : 8 bits
Scan type                        : Progressive
Bits/(Pixel*Frame)               : 0.128
Stream size                      : 132 MiB (80%)
Writing library                  : x264 core 112

Audio
ID                               : 2
Format                           : AAC
Format/Info                      : Advanced Audio Codec
Format profile                   : LC
Codec ID                         : 40
Duration                         : 46mn 11s
Bit rate mode                    : Variable
Bit rate                         : 96.0 Kbps
Maximum bit rate                 : 109 Kbps
Channel(s)                       : 2 channels
Channel positions                : Front: L R
Sampling rate                    : 48.0 KHz
Compression mode                 : Lossy
Stream size                      : 31.7 MiB (19%)
Language                         : English

Screenshot

http://84448b75.drstickyfingers.com

Locations no locations

Related

FILE SIZE SEEDS PEERS ADDED
Slutty mature amateur Ivee enjoys a hard fucking - misc Verified 145.07 MB 1 57 17 hours
[PureMature] Ava Addams in Fuck Those Titties (2014) SiteRip - misc Verified 433.32 MB 26 20 17 hours
EroticaX Sweet Pregnant teen gets a romantic fuck - misc Verified 104.79 MB 1 48 18 hours
Oral, fuck and facial with sweet Mom - misc Verified 190.07 MB 29 12 18 hours
Indian Aunty Homemade Hardcore Fuck - misc Verified 114.04 MB 3 136 23 hours
Hot amateur group fuck Action - misc Verified 69.16 MB 12 12 1 day
Hard As You Wish { 2014 NEW WEB-DL } { NATHAN BLAKE } - misc Verified 1.03 GB 5 17 1 day
JAV Censored JUFD-428 Big Tits Bondage Obscene Mother Aim The Daughter Of Breasts Hard Lesbian ~ Law - misc Verified 1.36 GB 90 306 1 day
JAV Censored IPZ-506 Dense Underwear Fuck Lingerie Na Captivating Miyuki Alice - misc Verified 4.8 GB 77 339 1 day
PureMature - Ava Addams (Fuck Those Titties) NEW December 20, 2014 - misc Verified 433.65 MB 25 33 1 day
GFRevenge - Flexi Fuck - Tara.mp4 - misc Verified 363.07 MB 1 0 1 day
[LegalPorno] Meg Magic gets her ass filled with piss and fucked hard SZ476 (2014) SiteRip - misc Verified 555.57 MB 8 4 2 days
[WoodmanCastingX] Jenny Glam in Casting Hard (2014) SiteRip - misc Verified 670.32 MB 35 22 2 days
[LegalPorno] Nikita Belucci and Lana Fever in Ass Fucked Hard by Nacho SZ444 (2014) SiteRip - misc Verified 795.57 MB 22 18 2 days
[Zed A. Shaw] Learn Python the Hard Way - PDF - zeke23 - misc Verified 2.64 MB 4 5 2 days
Larkin Love - Power Girl Creampied And Fucked Hard FULL HD - misc Verified 218.57 MB 40 38 2 days
Hard As You Wish (2014) WEBRip - misc Verified 1.03 GB 3 10 2 days
Cute Russian Babe Fuck Creampie - misc Verified 404.15 MB 24 31 2 days
Hard ass fisting - misc Verified 152.32 MB 1 73 2 days
[MommyBlowsBest] Bianca Breeze (Hard Juicy Snacks / 12.17.2014) - misc Verified 213.07 MB 1 0 2 days