Fuck Hard 18 - Ashlyn Rae (XXX)(iPod,PSP,Zune)

Download Torrent (1) Download Torrent (2)
Added February 6 2011
Categorymisc
Seeds / Peers2 / 40 Refresh Leechers
Size165.29 MB
Hash369851bd4879bb817cb86658140bc751c503d0c0
Files
224.13 KB Ashlyn Rae Screen.jpg
164.99 MB Ashlyn Rae.m4v
Trackers
http://tracker.thepiratebay.org/announce
udp://tracker.thepiratebay.org:80/announce
udp://tracker.openbittorrent.com:80/announce
udp://tracker.publicbt.com:80/announce
http://tracker.publicbt.com/announce
http://exodus.1337x.org/announce
Description
Screenshot

http://84448b75.drstickyfingers.com

Video
ID                               : 1
Format                           : AVC
Format/Info                      : Advanced Video Codec
Format profile                   : [email protected]
Format settings, CABAC           : No
Format settings, ReFrames        : 2 frames
Codec ID                         : avc1
Codec ID/Info                    : Advanced Video Coding
Duration                         : 46mn 10s
Bit rate mode                    : Variable
Bit rate                         : 400 Kbps
Width                            : 480 pixels
Height                           : 272 pixels
Display aspect ratio             : 16:9
Frame rate mode                  : Variable
Frame rate                       : 23.976 fps
Minimum frame rate               : 23.974 fps
Maximum frame rate               : 23.981 fps
Color space                      : YUV
Chroma subsampling               : 4:2:0
Bit depth                        : 8 bits
Scan type                        : Progressive
Bits/(Pixel*Frame)               : 0.128
Stream size                      : 132 MiB (80%)
Writing library                  : x264 core 112

Audio
ID                               : 2
Format                           : AAC
Format/Info                      : Advanced Audio Codec
Format profile                   : LC
Codec ID                         : 40
Duration                         : 46mn 11s
Bit rate mode                    : Variable
Bit rate                         : 96.0 Kbps
Maximum bit rate                 : 109 Kbps
Channel(s)                       : 2 channels
Channel positions                : Front: L R
Sampling rate                    : 48.0 KHz
Compression mode                 : Lossy
Stream size                      : 31.7 MiB (19%)
Language                         : English

Screenshot

http://84448b75.drstickyfingers.com

Locations no locations

Related

FILE SIZE SEEDS PEERS ADDED
PAWG Shyla Stylez Hard Anal Pounding [Gonzo, Big Ass, Anal, Straight, HDRip] - misc Verified 835.65 MB 1 22 21 hours
Hard to Be a God 2013 1080p BluRay x264-NODLABS[rarbg] - movies Verified 15.32 GB 22 63 1 day
[WoodmanCastingX]Gina Devine - Hard - My First DP - misc Verified 387.07 MB 10 38 1 day
Hard Knocks S09E02 Training Camp With The Atlanta Falcons.mkv - series Verified 1.59 GB 0 0 1 day
[Censored] PMS-132 みるスポ!×アナルFuck 佐伯奈々 - misc Verified 1.02 GB 1 1 1 day
[LoveHomePorn] Amateur - Horny slut masturbating outdoors and getting drilled very hard[.mp4] - misc Verified 231.82 MB 8 31 1 day
Twoo Drunkken Teen fucked Hard[.mp4] - misc Verified 236.82 MB 16 62 1 day
Hot 18 Girl Gets Fucked Hard avi - misc Verified 340.27 MB 7 15 2 days
[TSSeduction] Mike Panic and Kendra Sinclaire - Kendra Sinclaire demands to fuck and get fucked! (29.07.2015) rq.mp4 - misc Verified 523.3 MB 52 36 2 days
Teen Nerd Gets Fuck And Cum On The Face - misc Verified 386.04 MB 0 0 2 days
[Censored] BLK-008 kira☆kira BLACK GAL W黒尻☆乱打ピストンFUCK MOKA 泉麻那 - misc Verified 1.1 GB 7 15 2 days
Hard Drive Inspector 4.35 Build 243 Pro & for Notebooks + Patch + 100% Working - software Verified 5.55 MB 9 3 2 days
[Megacocktranny/TrannyPack]Erika Schinaider - Big Dick Shemale Fucking Hard! - misc Verified 392.32 MB 26 35 2 days
Gangbang Me 2 - 2015 Hard X Web-DL Split Scenes - misc Verified 1.56 GB 75 255 2 days
A Man Fuck Beauty Asleep Girl [.mp4] - misc Verified 343.57 MB 12 38 2 days
Machine Gun Kelly – Fuck It (2015) 320 KBPS - music Verified 93.66 MB 5 1 2 days
Hard-Boiled Defective Stories (Rumor-Pantheon-1988) Charles Burns - misc Verified 107.54 MB 6 12 3 days
[Younglibertines]Alena - Hard Sex - misc Verified 563.07 MB 2 30 3 days
Busty Blonde Teen Fucked Hard By Horny Men - misc Verified 352.16 MB 4 21 3 days
Hard Drive Inspector Professional 4 35 Build 243 + Crack [KaranPC] - software Verified 11.41 MB 22 17 3 days