Big Macky -Julia Paes (XXX)(iPod,PSP,Zune)

Download Torrent (1) Download Torrent (2)
Added February 14 2011
Categorymisc
Seeds / Peers1 / 6 Refresh Leechers
Size66.21 MB
Hashe6b473575949f6e28f130381da6a19ae24c3cdde
Files
65.88 MB Big Macky-Julia Paes.m4v
276.8 KB Screen.jpg
Trackers
http://tracker.thepiratebay.org/announce
udp://tracker.thepiratebay.org:80/announce
udp://tracker.openbittorrent.com:80/announce
udp://tracker.publicbt.com:80/announce
http://tracker.publicbt.com/announce
http://exodus.1337x.org/announce
Description
Screenshots:

http://9b81b444.tnabucks.com

Video
ID                               : 1
Format                           : AVC
Format/Info                      : Advanced Video Codec
Format profile                   : [email protected]
Format settings, CABAC           : No
Format settings, ReFrames        : 2 frames
Codec ID                         : avc1
Codec ID/Info                    : Advanced Video Coding
Duration                         : 22mn 16s
Bit rate mode                    : Variable
Bit rate                         : 350 Kbps
Width                            : 364 pixels
Height                           : 272 pixels
Display aspect ratio             : 4:3
Frame rate mode                  : Variable
Frame rate                       : 23.976 fps
Minimum frame rate               : 23.974 fps
Maximum frame rate               : 23.981 fps
Color space                      : YUV
Chroma subsampling               : 4:2:0
Bit depth                        : 8 bits
Scan type                        : Progressive
Bits/(Pixel*Frame)               : 0.147
Stream size                      : 55.7 MiB (85%)
Writing library                  : x264 core 112

Audio
ID                               : 2
Format                           : AAC
Format/Info                      : Advanced Audio Codec
Format profile                   : LC
Codec ID                         : 40
Duration                         : 22mn 16s
Bit rate mode                    : Variable
Bit rate                         : 60.3 Kbps
Maximum bit rate                 : 120 Kbps
Channel(s)                       : 2 channels
Channel positions                : Front: L R
Sampling rate                    : 44.1 KHz
Compression mode                 : Lossy
Stream size                      : 9.60 MiB (15%)
Language                         : Portuguese

More Torrents...

http://thepiratebay.org/user/punter21

Locations no locations

Related

FILE SIZE SEEDS PEERS ADDED
Offshore Wind Energy - Research on Environmental Impacts - Julia Köller, Johann Köppel, Wolfgang Peters (Springer, 2006).pdf - misc Verified 8.99 MB 14 6 2 days
FantasyMassage - Ive Always Dreamt Of This - Julia Ann.mp4 - misc Verified 508.32 MB 35 19 2 days
[18+] Julia Pucher - German Cybergirl of the Month December 2014 -=TLU622=- [Team Furious] - misc Verified 7.02 MB 11 7 3 days
FakeTaxi - Julia de Lucia (Horny spanish lady does anal) HD - misc Verified 708.32 MB 17 36 6 days
MomsTeachSex - Julia Ann, Natasha White (The Only Lesson) - misc Verified 465.82 MB 13 14 6 days
[SexArt] Julia Roca (Lost in a Dream Volume 7 - 19.04.15) rq.mp4 - misc Verified 264.15 MB 31 25 1 week
Babes - Julia De Lucia - misc Verified 605.3 MB 18 22 1 week
[Moms Teach Sex] Julia Ann, Natasha White [Her First Big Cock] [720p] [.mp4] - misc Verified 1.04 GB 38 60 1 week
[Babes] Julia De Lucia (My Bodys Telling Me Yes - 17.04.15) rq.mp4 - misc Verified 120.29 MB 17 17 1 week
PublicPickUps 15 04 12 Julia De Lucia Spanish Student Down To Fuck XXX SD MP4-RARBG - misc Verified 418.82 MB 24 35 1 week
[Sineplex] Pewa and Julia - Hardcore Climax 16 -=SiteRip= - misc Verified 423.82 MB 27 9 1 week
Public Pick Ups - Julia De Lucia mp4 - misc Verified 276.65 MB 13 16 2 weeks
[PublicPickUps] Julia De Lucia - misc Verified 275.65 MB 1 28 2 weeks
[PublicPickUps] JULIA de lucia - Spanish Student Down to Fuck - 04.12.2015 [1080p] - misc Verified 2.83 GB 1 27 2 weeks
jimmy fallon 2015 04 08 julia louis dreyfus hdtv x264 aaf rartv - series Verified 417.07 MB 119 22 2 weeks
[SmartMovies.net] Julia Taylor - MILF baise avec un le mari de son amie - misc Verified 436.07 MB 7 23 2 weeks
[SM-090] Julia ユリア - 西欧ブロンド着エロ倶楽部 18才 DVDISO - misc Verified 4.07 GB 10 57 2 weeks
MomsTeachSex - Julia Ann, Natasha White { Her First Big Cock - 03.24.2015 } NEW March 24, 2015 - misc Verified 465.57 MB 3 3 2 weeks
DigitalPlayground - Julia Ann { Stryker-Episode 4-From Russia with Love - 01.24.2015 } NEW January 24, 2015 - misc Verified 361.65 MB 6 1 2 weeks
Big Tits At Work - Julia Ann, Olivia Austin { Disciplinary Action Part Two - 01.28.2015 - Brazzers } NEW January 28, 2015 720p - misc Verified 2.08 GB 5 13 2 weeks