Login or Register
Add to your bookmarks
Big Macky -Julia Paes (XXX)(iPod,PSP,Zune) torrent
DOWNLOAD TORRENT STREAM IN HD ►
Category : Misc » Others
Added : 14 Feb 2011  
Seeds : 1
Peers : 6
Hash : e6b473575949f6e28f130381da6a19ae24c3cdde
Size : 66.21 MB
Downloads : 41 times

Report Copyright Infringement


Screenshots:

http://9b81b444.tnabucks.com

Video
ID                               : 1
Format                           : AVC
Format/Info                      : Advanced Video Codec
Format profile                   : [email protected]
Format settings, CABAC           : No
Format settings, ReFrames        : 2 frames
Codec ID                         : avc1
Codec ID/Info                    : Advanced Video Coding
Duration                         : 22mn 16s
Bit rate mode                    : Variable
Bit rate                         : 350 Kbps
Width                            : 364 pixels
Height                           : 272 pixels
Display aspect ratio             : 4:3
Frame rate mode                  : Variable
Frame rate                       : 23.976 fps
Minimum frame rate               : 23.974 fps
Maximum frame rate               : 23.981 fps
Color space                      : YUV
Chroma subsampling               : 4:2:0
Bit depth                        : 8 bits
Scan type                        : Progressive
Bits/(Pixel*Frame)               : 0.147
Stream size                      : 55.7 MiB (85%)
Writing library                  : x264 core 112

Audio
ID                               : 2
Format                           : AAC
Format/Info                      : Advanced Audio Codec
Format profile                   : LC
Codec ID                         : 40
Duration                         : 22mn 16s
Bit rate mode                    : Variable
Bit rate                         : 60.3 Kbps
Maximum bit rate                 : 120 Kbps
Channel(s)                       : 2 channels
Channel positions                : Front: L R
Sampling rate                    : 44.1 KHz
Compression mode                 : Lossy
Stream size                      : 9.60 MiB (15%)
Language                         : Portuguese

More Torrents...

http://thepiratebay.org/user/punter21

Big Macky -Julia Paes (XXX)(iPod,PSP,Zune) torrent trackers
public - http://tracker.thepiratebay.org/announce

public - udp://tracker.thepiratebay.org:80/announce

public - udp://tracker.openbittorrent.com:80/announce

public - udp://tracker.publicbt.com:80/announce

public - http://tracker.publicbt.com/announce

public - http://exodus.1337x.org/announce

Big Macky -Julia Paes (XXX)(iPod,PSP,Zune) torrent internal files
  • image Big Macky-Julia Paes
    • image Big Macky-Julia Paes.m4v    65.88 MB
    • image Screen.jpg    276.8 KB

No comments
You must log in to add a comment.

Počítadlo.cz TurkeyRank.Com - Pagerank Servisi TOPlist