Big Macky -Julia Paes (XXX)(iPod,PSP,Zune)

Download Torrent (1) Download Torrent (2)
Added February 14 2011
Categorymisc
Seeds / Peers1 / 6 Refresh Leechers
Size66.21 MB
Hashe6b473575949f6e28f130381da6a19ae24c3cdde
Files
65.88 MB Big Macky-Julia Paes.m4v
276.8 KB Screen.jpg
Trackers
http://tracker.thepiratebay.org/announce
udp://tracker.thepiratebay.org:80/announce
udp://tracker.openbittorrent.com:80/announce
udp://tracker.publicbt.com:80/announce
http://tracker.publicbt.com/announce
http://exodus.1337x.org/announce
Description
Screenshots:

http://9b81b444.tnabucks.com

Video
ID                               : 1
Format                           : AVC
Format/Info                      : Advanced Video Codec
Format profile                   : [email protected]
Format settings, CABAC           : No
Format settings, ReFrames        : 2 frames
Codec ID                         : avc1
Codec ID/Info                    : Advanced Video Coding
Duration                         : 22mn 16s
Bit rate mode                    : Variable
Bit rate                         : 350 Kbps
Width                            : 364 pixels
Height                           : 272 pixels
Display aspect ratio             : 4:3
Frame rate mode                  : Variable
Frame rate                       : 23.976 fps
Minimum frame rate               : 23.974 fps
Maximum frame rate               : 23.981 fps
Color space                      : YUV
Chroma subsampling               : 4:2:0
Bit depth                        : 8 bits
Scan type                        : Progressive
Bits/(Pixel*Frame)               : 0.147
Stream size                      : 55.7 MiB (85%)
Writing library                  : x264 core 112

Audio
ID                               : 2
Format                           : AAC
Format/Info                      : Advanced Audio Codec
Format profile                   : LC
Codec ID                         : 40
Duration                         : 22mn 16s
Bit rate mode                    : Variable
Bit rate                         : 60.3 Kbps
Maximum bit rate                 : 120 Kbps
Channel(s)                       : 2 channels
Channel positions                : Front: L R
Sampling rate                    : 44.1 KHz
Compression mode                 : Lossy
Stream size                      : 9.60 MiB (15%)
Language                         : Portuguese

More Torrents...

http://thepiratebay.org/user/punter21

Locations no locations

Related

FILE SIZE SEEDS PEERS ADDED
BigTitsAtWork - Julia Ann - Work Hard... Fuck Harder ** NEW (BRAZZERS / November 26, 2014) NEW ** - misc Verified 467.65 MB 23 33 5 days
[Shapiro Laura] Julia Child - mobi - zeke23 - misc Verified 201.6 KB 8 1 5 days
Spizoo - Julia Lesson (Pervert College) - misc Verified 376.57 MB 0 0 2 weeks
[MofosOldSchool] Julia Ann (My Mother loves brothas!) [.mp4][PornLeech] - misc Verified 367.65 MB 0 0 2 weeks
Ariella Ferrera, Julia Ann - misc Verified 309.82 MB 0 0 2 weeks
PervertCollege.14.12.05.Julia.Ann.XXX.1080p.MP4.KTR - misc Verified 1.13 GB 14 15 2 weeks
Julia misses DP [HD] - misc Verified 257.07 MB 1 0 2 weeks
Julia Keller - Onderhuids. NL Ebook. DMT - misc Verified 1.91 MB 0 0 2 weeks
Her Two Billionaires and a Baby (Her Billionaires #4) by Kent, Julia[.epub] - misc Verified 265.6 KB 1 0 2 weeks
Julia Ann - Sexy Milf Interracial Fucking HD 1080p - misc Verified 1.04 GB 1 0 2 weeks
Julia Ann - Big Wet Asses 15 (2009) DVDRip - misc Verified 604.5 MB 1 0 3 weeks
MIDE-173 Married JULIA who lost us Ji ○ port other than husband - misc Verified 1.35 GB 710 909 3 weeks
Julia Roca - Welcome Back HD 1080p - misc Verified 1.2 GB 1 0 3 weeks
BigTitsAtWork - Julia Ann & Bill Bailey, Clover (Work Hard... Fuck Harder) - misc Verified 249.32 MB 1 0 3 weeks
BRAZZERS - BigTitsAtWork - Julia Ann - Work Hard Fuck Harder - Nov 26, 2014 NEW - misc Verified 249.32 MB 1 0 3 weeks
MonstersOfCock14 11 25 Julia Ann 1080p MP4-SEXORS - misc Verified 1.08 GB 0 0 3 weeks
MonstersOfCock 14 11 25 Julia Ann XXX 1080p MP4-SEXORS - misc Verified 1.04 GB 4 6 3 weeks
MonstersOfCock - Julia Ann (Sexy Milf Interracial Fucking / mc13636) 480p NEW November 25, 2014 - misc Verified 256.15 MB 1 0 3 weeks
Temptation of Japanese Wife Julia - MrBonham (part 2)[email protected] - misc Verified 245.41 MB 1 0 3 weeks
RealExGirlfriends.14.11.22.Julia.Roca.Welcome.Back.XXX.720p.MP4-RARBG - misc Verified 349.57 MB 1 0 3 weeks