Big Macky -Julia Paes (XXX)(iPod,PSP,Zune)

Download Torrent (1) Download Torrent (2)
Added February 14 2011
Categorymisc
Seeds / Peers1 / 6 Refresh Leechers
Size66.21 MB
Hashe6b473575949f6e28f130381da6a19ae24c3cdde
Files
65.88 MB Big Macky-Julia Paes.m4v
276.8 KB Screen.jpg
Trackers
http://tracker.thepiratebay.org/announce
udp://tracker.thepiratebay.org:80/announce
udp://tracker.openbittorrent.com:80/announce
udp://tracker.publicbt.com:80/announce
http://tracker.publicbt.com/announce
http://exodus.1337x.org/announce
Description
Screenshots:

http://9b81b444.tnabucks.com

Video
ID                               : 1
Format                           : AVC
Format/Info                      : Advanced Video Codec
Format profile                   : [email protected]
Format settings, CABAC           : No
Format settings, ReFrames        : 2 frames
Codec ID                         : avc1
Codec ID/Info                    : Advanced Video Coding
Duration                         : 22mn 16s
Bit rate mode                    : Variable
Bit rate                         : 350 Kbps
Width                            : 364 pixels
Height                           : 272 pixels
Display aspect ratio             : 4:3
Frame rate mode                  : Variable
Frame rate                       : 23.976 fps
Minimum frame rate               : 23.974 fps
Maximum frame rate               : 23.981 fps
Color space                      : YUV
Chroma subsampling               : 4:2:0
Bit depth                        : 8 bits
Scan type                        : Progressive
Bits/(Pixel*Frame)               : 0.147
Stream size                      : 55.7 MiB (85%)
Writing library                  : x264 core 112

Audio
ID                               : 2
Format                           : AAC
Format/Info                      : Advanced Audio Codec
Format profile                   : LC
Codec ID                         : 40
Duration                         : 22mn 16s
Bit rate mode                    : Variable
Bit rate                         : 60.3 Kbps
Maximum bit rate                 : 120 Kbps
Channel(s)                       : 2 channels
Channel positions                : Front: L R
Sampling rate                    : 44.1 KHz
Compression mode                 : Lossy
Stream size                      : 9.60 MiB (15%)
Language                         : Portuguese

More Torrents...

http://thepiratebay.org/user/punter21

Locations no locations

Related

FILE SIZE SEEDS PEERS ADDED
Passion HD - Julia Roca { Returning Home - 06.12.2015 } NEW June 12, 2015 - misc Verified 314.07 MB 1 1 1 day
Dennis Sheperd, David MeShow & Francis Gaulin Feat. Julia Westlin - Les Ailes (DJ Ange Remix) 2015 [EDM RG] - music Verified 15.56 MB 1 0 2 days
Babes.Julia.Roca.Silvia.Lauren.Hot.Property - misc Verified 479.57 MB 5 6 3 days
Dennis Sheperd, David MeShow & Francis Gaulin Feat. Julia Westlin - Les Ailes (Club Mix) 2015 [EDM RG] - music Verified 16.23 MB 2 0 4 days
TheTasteOfBrazilianAss - Julia (07.30.2015) - misc Verified 174.07 MB 1 31 5 days
Babes - Julia Roca, Silvia Lauren (Hot Property) NEW 29 July 2015 - misc Verified 159.82 MB 597 316 6 days
Babes - Julia Roca, Silvia Lauren { Hot Property - 07.28.2015 } NEW July 29, 2015 1080p - misc Verified 1.75 GB 10 17 6 days
PunishTeens - Julia De Lucia - Punished The Right Way ** NEW (July 28, 2015) NEW ** - misc Verified 752.3 MB 29 18 1 week
BRAZZERS - Mommy Got Boobs - BJ in Office - Julia Ann mkv - misc Verified 118.66 MB 1 87 1 week
[MyDirtyHobby]Julia-Jones - Mein erstes Mal mit Handfesseln - misc Verified 271.57 MB 15 7 1 week
The Leveller - Julia Durango - misc Verified 723.2 KB 15 2 1 week
WoodmanCastingX.Julia.Gomez.Updated.Casting.X.130.mp4 - misc Verified 744.07 MB 2 9 2 weeks
Passion-HD - Lola Reve, Julia Roca (Teens Coming Home / 07.20.2015) ** NEW July 20, 2015 ** SD MP4 - misc Verified 344.07 MB 13 23 2 weeks
The Model Wife by Julia Llewellyn [Fiction, epub/mobi/pdf] {G4mbl3R} - misc Verified 5.1 MB 13 11 2 weeks
The Tower, the Zoo and the Tortoise by Julia Stuart [Fiction, epub/mobi/pdf] {G4mbl3R} - misc Verified 5.68 MB 2 4 2 weeks
(Trance) Damian Wasse feat. Julia Lav - You And Me (Colonial One Remix) (Go On Air Recordings [GOA0041]) WEB - 2014, MP3 (tracks), 320 kbps - music Verified 15.85 MB 0 0 2 weeks
1By-Day – Julia Roca – Athletic Spanish Beauty Showcases Strong Arms And Pink Pussy [HD-720p] - misc Verified 637.3 MB 6 28 2 weeks
Julia.Taylor Anal.Insurgents 14.07.2015 Mylove .mp4 - misc Verified 570.07 MB 27 31 3 weeks
MomBangTeens - Julia Ann, Alexa Grace (Bang , Bang, Bang) sd NEW July 13, 2015 - misc Verified 478.57 MB 1 0 3 weeks
MomBangTeens - Julia Ann, Alexa Grace (Bang , Bang, Bang) 576p NEW July 13, 2015 - misc Verified 1.07 GB 1 0 3 weeks