Big Macky -Julia Paes (XXX)(iPod,PSP,Zune)

Download Torrent (1) Download Torrent (2)
Added February 14 2011
Categorymisc
Seeds / Peers1 / 6 Refresh Leechers
Size66.21 MB
Hashe6b473575949f6e28f130381da6a19ae24c3cdde
Files
65.88 MB Big Macky-Julia Paes.m4v
276.8 KB Screen.jpg
Trackers
http://tracker.thepiratebay.org/announce
udp://tracker.thepiratebay.org:80/announce
udp://tracker.openbittorrent.com:80/announce
udp://tracker.publicbt.com:80/announce
http://tracker.publicbt.com/announce
http://exodus.1337x.org/announce
Description
Screenshots:

http://9b81b444.tnabucks.com

Video
ID                               : 1
Format                           : AVC
Format/Info                      : Advanced Video Codec
Format profile                   : [email protected]
Format settings, CABAC           : No
Format settings, ReFrames        : 2 frames
Codec ID                         : avc1
Codec ID/Info                    : Advanced Video Coding
Duration                         : 22mn 16s
Bit rate mode                    : Variable
Bit rate                         : 350 Kbps
Width                            : 364 pixels
Height                           : 272 pixels
Display aspect ratio             : 4:3
Frame rate mode                  : Variable
Frame rate                       : 23.976 fps
Minimum frame rate               : 23.974 fps
Maximum frame rate               : 23.981 fps
Color space                      : YUV
Chroma subsampling               : 4:2:0
Bit depth                        : 8 bits
Scan type                        : Progressive
Bits/(Pixel*Frame)               : 0.147
Stream size                      : 55.7 MiB (85%)
Writing library                  : x264 core 112

Audio
ID                               : 2
Format                           : AAC
Format/Info                      : Advanced Audio Codec
Format profile                   : LC
Codec ID                         : 40
Duration                         : 22mn 16s
Bit rate mode                    : Variable
Bit rate                         : 60.3 Kbps
Maximum bit rate                 : 120 Kbps
Channel(s)                       : 2 channels
Channel positions                : Front: L R
Sampling rate                    : 44.1 KHz
Compression mode                 : Lossy
Stream size                      : 9.60 MiB (15%)
Language                         : Portuguese

More Torrents...

http://thepiratebay.org/user/punter21

Locations no locations

Related

FILE SIZE SEEDS PEERS ADDED
Julia Stagg - De dorpswinkel van Madame Josette. NL Ebook. DMT - misc Verified 998.4 KB 21 5 1 day
BigTitsAtWork - Julia Ann, Olivia Austin - Disciplinary Action Part Two (480p_2000) ***NEW JANUARY 28, 2015 NEW*** - misc Verified 561.3 MB 3 5 1 day
Kristine (Mistress Julia) and Friend - misc Verified 134.07 MB 1 0 2 days
Julia Navarro - Zeg me wie ik ben. NL Ebook. DMT - misc Verified 1.29 MB 62 17 5 days
Interview With Photo Model - Julia Alexandratou.avi - misc Verified 229.57 MB 8 9 6 days
DigitalPlayground - Julia Ann { Stryker-Episode 4-From Russia with Love - 01.24.2015 } NEW January 24, 2015 1080p - misc Verified 1.33 GB 18 42 6 days
DigitalPlayground - Julia Ann { Stryker-Episode 4-From Russia with Love - 01.24.2015 } NEW January 24, 2015 720p - misc Verified 923.3 MB 17 48 6 days
SexArt - Julia Roca, Tracy Lindsay - Que Es La Pasion [.mp4] - misc Verified 351.15 MB 14 28 1 week
HotAndMean Julia Ann Olivia Austin Disciplinary Action Part One - misc Verified 251.07 MB 8 7 1 week
HotAndMean.15.01.17.Julia.Ann.And.Olivia.Austin.Disciplinary.Action.Part.One.XXX.SD.MP4 - misc Verified 321.07 MB 4 6 1 week
[FirstClassPOV] Jessica and Julia - Suck Me Off (01.18.2015) - misc Verified 217.32 MB 2 83 1 week
[HotAndMean / Brazzers] Julia Ann & Olivia Austin (Disciplinary Action Part One / 17.01.15) - misc Verified 470.15 MB 0 1 1 week
JAV Censored PPPD-340 Her Sister Seduce Me With Big Tits And Cum OK JULIA - misc Verified 1.1 GB 59 163 2 weeks
[MyDirtyHobby] Julia Herz - Mit Freundin Telefoniert Und Dabei Ihren Freund Abgemolken [.mp4] - misc Verified 110.29 MB 1 1 3 weeks
[MyDirtyHobby] Julia-Herz - Lecker Pommes aber eine andere SoBe muss her! [.mp4] - misc Verified 179.57 MB 13 17 3 weeks
Top.Chef.S12E10.For.Julia.and.Jacques.SDTV.[2Maverick].mp4 - series Verified 525.3 MB 242 321 3 weeks
FantasyHD - Julia Roca - Acrobatic Love (480p) ***NEW JANUARY 02, 2014 NEW*** - misc Verified 297.65 MB 19 35 3 weeks
FantasyHD - Julia Roca { Acrobatic Love - 01.02.2014 } ** NEW January 02, 2015 ** 1080p - misc Verified 1.15 GB 21 37 4 weeks
FantasyHD - Julia Roca { Acrobatic Love - 01.02.2014 } ** NEW January 02, 2015 ** 720p - misc Verified 579.3 MB 17 30 4 weeks
[FantasyHD] Julia Roca (Acrobatic Love) *NEW January 2, 2015* -={SPARROW}=- - misc Verified 297.57 MB 18 35 4 weeks