Big Macky -Julia Paes (XXX)(iPod,PSP,Zune)

Download Torrent (1) Download Torrent (2)
Added February 14 2011
Categorymisc
Seeds / Peers1 / 6 Refresh Leechers
Size66.21 MB
Hashe6b473575949f6e28f130381da6a19ae24c3cdde
Files
65.88 MB Big Macky-Julia Paes.m4v
276.8 KB Screen.jpg
Trackers
http://tracker.thepiratebay.org/announce
udp://tracker.thepiratebay.org:80/announce
udp://tracker.openbittorrent.com:80/announce
udp://tracker.publicbt.com:80/announce
http://tracker.publicbt.com/announce
http://exodus.1337x.org/announce
Description
Screenshots:

http://9b81b444.tnabucks.com

Video
ID                               : 1
Format                           : AVC
Format/Info                      : Advanced Video Codec
Format profile                   : [email protected]
Format settings, CABAC           : No
Format settings, ReFrames        : 2 frames
Codec ID                         : avc1
Codec ID/Info                    : Advanced Video Coding
Duration                         : 22mn 16s
Bit rate mode                    : Variable
Bit rate                         : 350 Kbps
Width                            : 364 pixels
Height                           : 272 pixels
Display aspect ratio             : 4:3
Frame rate mode                  : Variable
Frame rate                       : 23.976 fps
Minimum frame rate               : 23.974 fps
Maximum frame rate               : 23.981 fps
Color space                      : YUV
Chroma subsampling               : 4:2:0
Bit depth                        : 8 bits
Scan type                        : Progressive
Bits/(Pixel*Frame)               : 0.147
Stream size                      : 55.7 MiB (85%)
Writing library                  : x264 core 112

Audio
ID                               : 2
Format                           : AAC
Format/Info                      : Advanced Audio Codec
Format profile                   : LC
Codec ID                         : 40
Duration                         : 22mn 16s
Bit rate mode                    : Variable
Bit rate                         : 60.3 Kbps
Maximum bit rate                 : 120 Kbps
Channel(s)                       : 2 channels
Channel positions                : Front: L R
Sampling rate                    : 44.1 KHz
Compression mode                 : Lossy
Stream size                      : 9.60 MiB (15%)
Language                         : Portuguese

More Torrents...

http://thepiratebay.org/user/punter21

Locations no locations

Related

FILE SIZE SEEDS PEERS ADDED
Kent, Julia-Random Acts of Love - epub - zeke23 - misc Verified 291.2 KB 16 4 17 hours
[Mature]Julia Pink (EU) (38) - German Mom Doing The Gut Next Door - misc Verified 285.57 MB 27 49 1 day
Child, Julia-Mastering the Art of French Cooking, Volume 2. - epub - zeke23 - misc Verified 15.99 MB 41 6 5 days
Child, Julia-Mastering the Art of French Cooking, Volume 1. - epub - zeke23 - misc Verified 5.14 MB 39 6 5 days
Mofos - Julia Ann watches teen in the shower mp4 - misc Verified 426.82 MB 11 4 5 days
Child, Julia-Julias Kitchen Wisdom - epub - zeke23 - misc Verified 1.57 MB 25 1 5 days
Private - Julia Roca - Maid Julia Roca Gets Wet in the Shower While Taking a Hard Pumping ** NEW (April 29, 2015) NEW ** - misc Verified 361.65 MB 33 20 1 week
Dont Tell My Husband 4 - Cheating Housewife Julia Ann [720p].mp4 - misc Verified 743.57 MB 19 3 1 week
JAV Censored MIBD-915 Ultimate Nude Of The Most Beautiful In The World JULIA BEST1 - misc Verified 4.8 GB 110 776 1 week
PlumperPass 15 05 06 Julia Sands in A Day in The Life 720p MP4-TBP - misc Verified 774.07 MB 1 16 2 weeks
[Private]Julia Swen - Private - misc Verified 604.07 MB 13 30 2 weeks
Julia Dahl - [Rebekah Roberts 01] - Invisible City (epub) - Rocky_45 [CPUL] - misc Verified 275.2 KB 9 2 2 weeks
Julia Pinks Casting 2 XXX (2015) DVDRip-CiCXXX [FCDT] - misc Verified 877.32 MB 14 12 3 weeks
TightandTeen - Private Gold 191 Private College Girls Scene 3 Julia Roca (Apr 27, 2015) [jpg] - misc Verified 23.31 MB 1 0 3 weeks
Julia Vari - Adoro 2015 ( Latin Jazz ) @ 320 - music Verified 110.91 MB 1 0 3 weeks
Offshore Wind Energy - Research on Environmental Impacts - Julia Köller, Johann Köppel, Wolfgang Peters (Springer, 2006).pdf - misc Verified 8.99 MB 14 6 3 weeks
FantasyMassage - Ive Always Dreamt Of This - Julia Ann.mp4 - misc Verified 508.32 MB 35 19 4 weeks
[18+] Julia Pucher - German Cybergirl of the Month December 2014 -=TLU622=- [Team Furious] - misc Verified 7.02 MB 11 7 4 weeks
FakeTaxi - Julia de Lucia (Horny spanish lady does anal) HD - misc Verified 708.32 MB 17 36 1 month
MomsTeachSex - Julia Ann, Natasha White (The Only Lesson) - misc Verified 465.82 MB 13 14 1 month