Big Macky -Julia Paes (XXX)(iPod,PSP,Zune)

Download Torrent (1) Download Torrent (2)
Added February 14 2011
Categorymisc
Seeds / Peers1 / 6 Refresh Leechers
Size66.21 MB
Hashe6b473575949f6e28f130381da6a19ae24c3cdde
Files
65.88 MB Big Macky-Julia Paes.m4v
276.8 KB Screen.jpg
Trackers
http://tracker.thepiratebay.org/announce
udp://tracker.thepiratebay.org:80/announce
udp://tracker.openbittorrent.com:80/announce
udp://tracker.publicbt.com:80/announce
http://tracker.publicbt.com/announce
http://exodus.1337x.org/announce
Description
Screenshots:

http://9b81b444.tnabucks.com

Video
ID                               : 1
Format                           : AVC
Format/Info                      : Advanced Video Codec
Format profile                   : [email protected]
Format settings, CABAC           : No
Format settings, ReFrames        : 2 frames
Codec ID                         : avc1
Codec ID/Info                    : Advanced Video Coding
Duration                         : 22mn 16s
Bit rate mode                    : Variable
Bit rate                         : 350 Kbps
Width                            : 364 pixels
Height                           : 272 pixels
Display aspect ratio             : 4:3
Frame rate mode                  : Variable
Frame rate                       : 23.976 fps
Minimum frame rate               : 23.974 fps
Maximum frame rate               : 23.981 fps
Color space                      : YUV
Chroma subsampling               : 4:2:0
Bit depth                        : 8 bits
Scan type                        : Progressive
Bits/(Pixel*Frame)               : 0.147
Stream size                      : 55.7 MiB (85%)
Writing library                  : x264 core 112

Audio
ID                               : 2
Format                           : AAC
Format/Info                      : Advanced Audio Codec
Format profile                   : LC
Codec ID                         : 40
Duration                         : 22mn 16s
Bit rate mode                    : Variable
Bit rate                         : 60.3 Kbps
Maximum bit rate                 : 120 Kbps
Channel(s)                       : 2 channels
Channel positions                : Front: L R
Sampling rate                    : 44.1 KHz
Compression mode                 : Lossy
Stream size                      : 9.60 MiB (15%)
Language                         : Portuguese

More Torrents...

http://thepiratebay.org/user/punter21

Locations no locations

Related

FILE SIZE SEEDS PEERS ADDED
Requested Julia Bond - Queen of Gapes in 720p - ATMAnalBrunette - misc Verified 1.67 GB 1 12 19 hours
Candy Julia - All For You HD 720p - misc Verified 426 MB 14 17 2 days
MomsTeachSex - Julia Ann, Natasha White - Her First Big Cock (360p) ***NEW MARCH 25, 2015 NEW*** - misc Verified 271.65 MB 0 0 2 days
MomsTeachSex - Her First Big Cock - Julia Ann, Natasha White.mp4 - misc Verified 465.57 MB 1 0 4 days
MomsTeachSex - Julia Ann, Natasha White - Her First Big Cock ** NEW (March 24, 2015) NEW ** - misc Verified 465.65 MB 1 82 4 days
Pine River Series - Julia London - misc Verified 2.1 MB 22 9 6 days
{MomsBangTeens} Carter Cruise & Julia Ann ~ Cruise Control HD720p - misc Verified 864.3 MB 1 9 1 week
{MomsBangTeens} Carter Cruise amp Julia Ann Cruise Control HD720p {THE RAT BASTARDS} - misc Verified 864.3 MB 0 0 1 week
Busted Babysitters - Daisy Haze and Julia Ann (Swinger Couple Seduces the Babysitter) HD - misc Verified 1.92 GB 6 24 1 week
Busted Babysitters - Daisy Haze amp Julia Ann in quot Swinger Couple Seduces the Babysitter quot - 720p - misc Verified 1.92 GB 1 27 1 week
Julia (2014) 1080p BrRip x264 - YIFY - movies Verified 1.44 GB 179 40 2 weeks
Moms Bang Teens - Julia Ann and Carter Cruise (Cruise control) - misc Verified 398.07 MB 2 0 2 weeks
[BrazzersExxtra] Julia Ann (Two Bangz vs Nancy) - misc Verified 278.65 MB 35 78 2 weeks
FirstAnalQuest Julia XXX 1080p BTY mp4 - misc Verified 1.23 GB 1 0 2 weeks
[MomsBangTeens] Julia Ann, Carter Cruise (Cruise Control / 03.09.2015) - misc Verified 398.15 MB 169 531 2 weeks
[MomsBangTeens] Julia Ann, Carter Cruise (Cruise control / 09.03.15) -={SPARROW}=- - misc Verified 398.07 MB 4 20 2 weeks
MomsBangTeens - Julia Ann, Carter Cruise (Cruise Control) NEW 09 March 2015 - misc Verified 398.07 MB 1 0 2 weeks
MomsBangTeens - Julia Ann, Carter Cruise - Cruise Control ** NEW (Reality Kings / March 09, 2015) NEW ** - misc Verified 398.15 MB 3 4 2 weeks
GlamourPornstar - Julia de Lucia (Army Sex) [HD] - misc Verified 821.32 MB 1 0 2 weeks
Gregory Benford - The Martian Race (Adventures of Viktor & Julia #1) - misc Verified 241.04 MB 35 9 2 weeks