Massage Creep - Jennifer White (XXX)(iPod,PSP,Zune)

Download Torrent (1) Download Torrent (2)
Added February 7 2011
Categorymisc
Seeds / Peers1 / 3 Refresh Leechers
Size186.82 MB
Hash85355a84e7445fb721198c74703a93102f16c626
Files
285.43 KB Jennifer White.jpg
186.43 MB Jennifer White.m4v
Trackers
http://tracker.thepiratebay.org/announce
udp://tracker.thepiratebay.org:80/announce
udp://tracker.openbittorrent.com:80/announce
udp://tracker.publicbt.com:80/announce
http://tracker.publicbt.com/announce
http://exodus.1337x.org/announce
Description
Screenshot

http://8ba9e974.poontown.net

Video
ID                               : 1
Format                           : AVC
Format/Info                      : Advanced Video Codec
Format profile                   : [email protected]
Format settings, CABAC           : No
Format settings, ReFrames        : 2 frames
Codec ID                         : avc1
Codec ID/Info                    : Advanced Video Coding
Duration                         : 56mn 55s
Bit rate mode                    : Variable
Bit rate                         : 400 Kbps
Width                            : 480 pixels
Height                           : 272 pixels
Display aspect ratio             : 16:9
Frame rate mode                  : Variable
Frame rate                       : 23.976 fps
Minimum frame rate               : 23.974 fps
Maximum frame rate               : 23.981 fps
Color space                      : YUV
Chroma subsampling               : 4:2:0
Bit depth                        : 8 bits
Scan type                        : Progressive
Bits/(Pixel*Frame)               : 0.128
Stream size                      : 163 MiB (87%)
Writing library                  : x264 core 112


Audio
ID                               : 2
Format                           : AAC
Format/Info                      : Advanced Audio Codec
Format profile                   : LC
Codec ID                         : 40
Duration                         : 56mn 55s
Bit rate mode                    : Variable
Bit rate                         : 54.5 Kbps
Maximum bit rate                 : 64.2 Kbps
Channel(s)                       : 2 channels
Channel positions                : Front: L R
Sampling rate                    : 44.1 KHz
Compression mode                 : Lossy
Stream size                      : 22.2 MiB (12%)
Language                         : English

Screenshot

http://8ba9e974.poontown.net


Locations no locations

Related

FILE SIZE SEEDS PEERS ADDED
MassageCreep 15 01 26 Lola Reve Hot Blond Massage XXX 720p MP4-RARBG - misc Verified 376.07 MB 2 50 10 hours
MassageCreep - Lola Reve - Hot Blond Massage ** NEW (Porn Pros / January 26, 2015) NEW ** - misc Verified 638.3 MB 1 62 1 day
MassageCreep - Lola Reve (Hot Blond Massage / 01.26.2015) ** NEW January 26, 2015 ** SD MP4 - misc Verified 318.07 MB 1 0 1 day
[MassageCreep/ PornPros] Lola Reve (Hot Blond Massage) - misc Verified 887.3 MB 5 10 1 day
JurassicCock - Jennifer White - Old Geezer Massage - misc Verified 338.32 MB 2 2 3 days
PureMature Sarah Vandella quot Pure Massage quot {2015 01 24} 480p Mp4 - misc Verified 405.15 MB 1 36 3 days
PureMature Sarah Vandella quot Pure Massage quot {2015 01 24} 1080p Mp4 - misc Verified 1.39 GB 2 25 3 days
18YearsOld - Franceska Jaimes (Busty Brunette Hottie Massage) December 15, 2011 - misc Verified 650.3 MB 33 39 3 days
PureMature - Sarah Vandella - Pure Massage [.Hd] [.mp4] - misc Verified 777.3 MB 9 12 3 days
The Secret of Raven Point by Jennifer Vanderbes [epub] - misc Verified 844.8 KB 1 0 4 days
Gorgon City Feat. Jennifer Hudson - Go All Night.mp3 [EDM RG] *mousR - music Verified 8.2 MB 1 0 5 days
[EuroTeenErotica] Latoya (Massage Between Friends / 01.22.2015) - misc Verified 214.07 MB 3 4 5 days
Jimmy Fallon 2015 01 21 Jennifer Aniston 720p HDTV x264-CROOKS - series Verified 1.11 GB 44 45 5 days
Seth Meyers 2015 01 21 Jennifer Lopez 720p HDTV x264-CROOKS - series Verified 1.21 GB 0 0 5 days
Jimmy Fallon 2015 01 21 Jennifer Aniston HDTV x264-CROOKS [eztv] - series Verified 373.65 MB 429 186 5 days
Passion-HD - Tali Dova And Ariana Marie - Poolside Massage ** NEW (January 21, 2015) NEW ** - misc Verified 648.3 MB 1 59 6 days
Jimmy.Fallon.2015.01.21 - Jennifer Aniston - Bill Gates - Mario Batali - mkv - series Verified 280.15 MB 2 23 6 days
The Daily Show 2015 01 20 Jennifer Lopez HDTV x264-BATV [eztv] - series Verified 181.13 MB 630 591 6 days
The Daily Show 2015 01 20 Jennifer Lopez 720p HDTV x264-BATV - series Verified 599.32 MB 0 0 1 week
Rub A Teen - Serena (Cock With My Massage Please) [HD] - misc Verified 971.82 MB 8 17 1 week