Massage Creep - Jennifer White (XXX)(iPod,PSP,Zune)

Download Torrent (1) Download Torrent (2)
Added February 7 2011
Categorymisc
Seeds / Peers1 / 3 Refresh Leechers
Size186.82 MB
Hash85355a84e7445fb721198c74703a93102f16c626
Files
285.43 KB Jennifer White.jpg
186.43 MB Jennifer White.m4v
Trackers
http://tracker.thepiratebay.org/announce
udp://tracker.thepiratebay.org:80/announce
udp://tracker.openbittorrent.com:80/announce
udp://tracker.publicbt.com:80/announce
http://tracker.publicbt.com/announce
http://exodus.1337x.org/announce
Description
Screenshot

http://8ba9e974.poontown.net

Video
ID                               : 1
Format                           : AVC
Format/Info                      : Advanced Video Codec
Format profile                   : [email protected]
Format settings, CABAC           : No
Format settings, ReFrames        : 2 frames
Codec ID                         : avc1
Codec ID/Info                    : Advanced Video Coding
Duration                         : 56mn 55s
Bit rate mode                    : Variable
Bit rate                         : 400 Kbps
Width                            : 480 pixels
Height                           : 272 pixels
Display aspect ratio             : 16:9
Frame rate mode                  : Variable
Frame rate                       : 23.976 fps
Minimum frame rate               : 23.974 fps
Maximum frame rate               : 23.981 fps
Color space                      : YUV
Chroma subsampling               : 4:2:0
Bit depth                        : 8 bits
Scan type                        : Progressive
Bits/(Pixel*Frame)               : 0.128
Stream size                      : 163 MiB (87%)
Writing library                  : x264 core 112


Audio
ID                               : 2
Format                           : AAC
Format/Info                      : Advanced Audio Codec
Format profile                   : LC
Codec ID                         : 40
Duration                         : 56mn 55s
Bit rate mode                    : Variable
Bit rate                         : 54.5 Kbps
Maximum bit rate                 : 64.2 Kbps
Channel(s)                       : 2 channels
Channel positions                : Front: L R
Sampling rate                    : 44.1 KHz
Compression mode                 : Lossy
Stream size                      : 22.2 MiB (12%)
Language                         : English

Screenshot

http://8ba9e974.poontown.net


Locations no locations

Related

FILE SIZE SEEDS PEERS ADDED
Searching for Beautiful (Searching For #3) by Jennifer Probst.epub - misc Verified 916 KB 16 3 12 hours
25 Sexy Jennifer Connelly Wallpapers Set 6 - misc Verified 13.83 MB 1 0 15 hours
25 Sexy Hot Jennifer Lopez Wallpaper Set 17 - misc Verified 11.08 MB 1 0 15 hours
[CzechMassage] Massage 175 (25-05-2015) - misc Verified 140.07 MB 6 3 22 hours
CzechMassage Massage 175 XXX New May 25, 2015 - misc Verified 140.07 MB 31 22 1 day
Fantasy Massage - Cherry Morgan [HD-720p] - misc Verified 708.3 MB 2 1 1 day
Nuru Massage - Sarah Vandella - misc Verified 313.15 MB 22 40 1 day
Jimmy Kimmel 2015 05 22 Jennifer Connelly SDTV x264-[2Maverick] - series Verified 380.15 MB 1 2 2 days
[MeanMassage]Rachel Rose - Mean Massage - misc Verified 223.57 MB 2 4 3 days
[PureMature] Charley Chase (Big Titty Massage) SD -=NEW MAY 23,2015=-.mp4 - misc Verified 451.2 MB 34 33 3 days
25 Hot Jennifer Aniston Babe Wallpaper Set 5 - misc Verified 16.7 MB 8 4 3 days
Happy Again (This is What Happy Looks Like #1.5) by Jennifer E. Smith (retail epub, mobi) {dwg} [BЯ] - misc Verified 820 KB 1 3 5 days
Swords Of Sorrow Vampirella & Jennifer Blood 001(2015)(Digital Exclusive Edition)(TLK-EMPIRE-HD).cbr - misc Verified 35.46 MB 1 0 5 days
ElegantRaw 14 09 08 Aleska Diamond Massage Therapy Ep 2 1080P MP4-GUSH - misc Verified 1.99 GB 1 14 5 days
Amadahy, Jennifer - Extreme Cheerleader Ballbusting HD 720p - misc Verified 450 MB 7 11 5 days
18 Eighteen - Jennifer Matthews Sasha Sean.mp4 - misc Verified 762.3 MB 0 6 5 days
Ellen.Degeneres.2013.04.18.19.Jennifer Aniston - Matthew.Perry - XviD - series Verified 700.3 MB 1 0 5 days
JAV Censored RIX-006 Tits Wife Netora To Business Trip Oil Massage - misc Verified 2.15 GB 34 248 6 days
Massage For Dummies - 1st & 2nd Edition (1999 & 2010) (Pdf) Gooner - misc Verified 56.96 MB 35 18 1 week
[CzechMassage/Czechav]CZECH MASSAGE - 174 - misc Verified 295.57 MB 20 35 1 week