Massage Creep - Jennifer White (XXX)(iPod,PSP,Zune)

Download Torrent (1) Download Torrent (2)
Added February 7 2011
Categorymisc
Seeds / Peers1 / 3 Refresh Leechers
Size186.82 MB
Hash85355a84e7445fb721198c74703a93102f16c626
Files
285.43 KB Jennifer White.jpg
186.43 MB Jennifer White.m4v
Trackers
http://tracker.thepiratebay.org/announce
udp://tracker.thepiratebay.org:80/announce
udp://tracker.openbittorrent.com:80/announce
udp://tracker.publicbt.com:80/announce
http://tracker.publicbt.com/announce
http://exodus.1337x.org/announce
Description
Screenshot

http://8ba9e974.poontown.net

Video
ID                               : 1
Format                           : AVC
Format/Info                      : Advanced Video Codec
Format profile                   : [email protected]
Format settings, CABAC           : No
Format settings, ReFrames        : 2 frames
Codec ID                         : avc1
Codec ID/Info                    : Advanced Video Coding
Duration                         : 56mn 55s
Bit rate mode                    : Variable
Bit rate                         : 400 Kbps
Width                            : 480 pixels
Height                           : 272 pixels
Display aspect ratio             : 16:9
Frame rate mode                  : Variable
Frame rate                       : 23.976 fps
Minimum frame rate               : 23.974 fps
Maximum frame rate               : 23.981 fps
Color space                      : YUV
Chroma subsampling               : 4:2:0
Bit depth                        : 8 bits
Scan type                        : Progressive
Bits/(Pixel*Frame)               : 0.128
Stream size                      : 163 MiB (87%)
Writing library                  : x264 core 112


Audio
ID                               : 2
Format                           : AAC
Format/Info                      : Advanced Audio Codec
Format profile                   : LC
Codec ID                         : 40
Duration                         : 56mn 55s
Bit rate mode                    : Variable
Bit rate                         : 54.5 Kbps
Maximum bit rate                 : 64.2 Kbps
Channel(s)                       : 2 channels
Channel positions                : Front: L R
Sampling rate                    : 44.1 KHz
Compression mode                 : Lossy
Stream size                      : 22.2 MiB (12%)
Language                         : English

Screenshot

http://8ba9e974.poontown.net


Locations no locations

Related

FILE SIZE SEEDS PEERS ADDED
Czech Massage # 180 (CzechAV/CzechMassage) HD720p MP4 - misc Verified 146.07 MB 3 24 19 hours
CzechMassage 15 06 29 Massage 180 XXX - misc Verified 247.32 MB 7 2 3 days
[CzechMassage/CzechAv]Czech Massage 180(NEW***29.06.2015) - misc Verified 247.07 MB 20 24 4 days
PetiteHDPorn Marley Brinx Massage Oils 720p HEVC x265 - misc Verified 95.06 MB 7 6 5 days
Scarlett Undercover - Jennifer Latham - misc Verified 2.52 MB 11 3 5 days
Alexis Rain - Audio Frequency Mr Creep - misc Verified 1.34 GB 1 5 1 week
Creep 2014 HDRip XviD AC3-EVO - movies Verified 1.39 GB 618 1032 1 week
18+ Creep 2014 English Movies 720p HDRip x264 ESubs AAC New Source with Sample ~ ☻rDX☻ - movies Verified 707.3 MB 1 26 1 week
[Clips4sale] Katsumi - Japanese body massage part 2 - sensual blowjob [.wmv] - misc Verified 452.07 MB 16 26 1 week
CzechMassage 15 06 22 Massage 179 XXX 720p WMV KTR - misc Verified 134.82 MB 24 8 1 week
Creep (2014) 720p WEB-DL 600MB - MkvCage - movies Verified 602.3 MB 1 0 1 week
AllGirlMassage - Riley Reid, Jenna Sativa, Chloe Amour, Carter Cruise - Massage Class Secrets Part Three: The Final Test ** NEW (June 22, 2015) NEW ** - misc Verified 348.65 MB 44 42 1 week
PetiteHDPorn - Marley Brinx - Massage Oils ** NEW (NUBILE / June 21, 2015) NEW ** - misc Verified 109.54 MB 9 4 1 week
CzechMassage 15 06 22 Massage 179 720p WMV-KTR - misc Verified 134.39 MB 0 0 1 week
Percy, Jennifer-Demon Camp_ A Soldiers Exorcism - epub - zeke23 - misc Verified 243.2 KB 10 1 1 week
PetiteHDPorn 15 06 21 Marley Brinx Massage Oils XXX 1080p MP4 KTR - misc Verified 1.06 GB 1 0 1 week
PetiteHDPorn - Marley Brinx - Massage Oils - misc Verified 1.06 GB 1 10 1 week
25 Sexy Hot Jennifer Lopez Wallpaper Set 19 - misc Verified 12.14 MB 1 0 1 week
[PetiteHDPorn] - Marley Brinx - Massage Oils - ** NEW 21 JUNE 2015 NEW ** - misc Verified 256.32 MB 23 6 1 week
PetiteHDPorn - Marley Brinx - Massage Oils ** NEW (NUBILE / June 21, 2015) NEW ** - misc Verified 256.65 MB 1 0 1 week