Massage Creep - Jennifer White (XXX)(iPod,PSP,Zune)

Download Torrent (1) Download Torrent (2)
Added February 7 2011
Categorymisc
Seeds / Peers1 / 3 Refresh Leechers
Size186.82 MB
Hash85355a84e7445fb721198c74703a93102f16c626
Files
285.43 KB Jennifer White.jpg
186.43 MB Jennifer White.m4v
Trackers
http://tracker.thepiratebay.org/announce
udp://tracker.thepiratebay.org:80/announce
udp://tracker.openbittorrent.com:80/announce
udp://tracker.publicbt.com:80/announce
http://tracker.publicbt.com/announce
http://exodus.1337x.org/announce
Description
Screenshot

http://8ba9e974.poontown.net

Video
ID                               : 1
Format                           : AVC
Format/Info                      : Advanced Video Codec
Format profile                   : [email protected]
Format settings, CABAC           : No
Format settings, ReFrames        : 2 frames
Codec ID                         : avc1
Codec ID/Info                    : Advanced Video Coding
Duration                         : 56mn 55s
Bit rate mode                    : Variable
Bit rate                         : 400 Kbps
Width                            : 480 pixels
Height                           : 272 pixels
Display aspect ratio             : 16:9
Frame rate mode                  : Variable
Frame rate                       : 23.976 fps
Minimum frame rate               : 23.974 fps
Maximum frame rate               : 23.981 fps
Color space                      : YUV
Chroma subsampling               : 4:2:0
Bit depth                        : 8 bits
Scan type                        : Progressive
Bits/(Pixel*Frame)               : 0.128
Stream size                      : 163 MiB (87%)
Writing library                  : x264 core 112


Audio
ID                               : 2
Format                           : AAC
Format/Info                      : Advanced Audio Codec
Format profile                   : LC
Codec ID                         : 40
Duration                         : 56mn 55s
Bit rate mode                    : Variable
Bit rate                         : 54.5 Kbps
Maximum bit rate                 : 64.2 Kbps
Channel(s)                       : 2 channels
Channel positions                : Front: L R
Sampling rate                    : 44.1 KHz
Compression mode                 : Lossy
Stream size                      : 22.2 MiB (12%)
Language                         : English

Screenshot

http://8ba9e974.poontown.net


Locations no locations

Related

FILE SIZE SEEDS PEERS ADDED
EuroTeenErotica - Jessi Gold and Gabi - Teen Massage Time ** NEW (DDF Network / March 26, 2015) NEW ** - misc Verified 224.07 MB 1 0 10 hours
[EuroTeenErotica] Jessi Gold and Gabi (Teen Massage Time - 26.03.15) rq.mp4 - misc Verified 224.07 MB 19 18 13 hours
[TSSeduction] 2015-03-25 Michelle Firestone (Massage Goes from Legit to Cumswapping in a Single Graze of a Cock) [360p - misc Verified 353.65 MB 8 10 21 hours
EuroSexParties - Jemma Valentine, Bella Beretta (Friendly Massage / 03.26.2015) ** NEW March 26, 2015 ** SD MP4 - misc Verified 415.57 MB 47 89 21 hours
Penthouse Jennifer Dark in Sex Addicts In Close Quarters XXX 720p BTY wmv - misc Verified 1.55 GB 1 0 1 day
Will Havoc and Michelle Firestone / Massage Goes from Legit to Cumswapping in a Single Graze of a Cock (25 Mar 2015) SiteRip - misc Verified 651.3 MB 18 22 1 day
Massage Porn - Zarina HD 1080p - misc Verified 430.82 MB 1 0 1 day
Ukraine Teenage Beauty with a perfect, pale skined body (47 kg) masterful big natural breasts receives an intense oil massage - misc Verified 319.57 MB 65 52 2 days
Jennifer Lopez - Feel The Light (Theme From Home) 720p x264 2015-TGMVHD - music Verified 107.04 MB 11 4 3 days
Jennifer Lynn - Ga voor mij. NL Ebook. DMT - misc Verified 742.4 KB 43 17 4 days
Since Youve Been Gone - Mary Jennifer Payne - misc Verified 627.2 KB 25 2 4 days
Jennifer Lopez - Feel The Light (from Home) 2015 - movies Verified 117.81 MB 0 0 4 days
Massage Me Hard - misc Verified 1.31 GB 2 29 6 days
Massage Porn - Izi HD 1080p - misc Verified 992.07 MB 1 0 1 week
18eighteen - Jennifer Matthews - Daydreaming About Dick - misc Verified 377.07 MB 2 10 1 week
Hegre-Art - Spiritual Release Massage ** NEW February 17, 2015 ** - misc Verified 479.15 MB 52 48 1 week
25 Sexy Jennifer Love Hewitt Wallpapers Set 2 - misc Verified 13.64 MB 19 5 1 week
Duel in the Sun (Western 1946) Jennifer Jones 720p - movies Verified 947.3 MB 1 0 1 week
CzechMassage 15 03 02 Massage 161 XXX 720p-KTR - misc Verified 183.32 MB 6 3 1 week
The Everything Kids Puzzle Book by Jennifer A. Ericsson - misc Verified 14.06 MB 25 23 2 weeks