Massage Creep - Jennifer White (XXX)(iPod,PSP,Zune)

Download Anonymous Download Torrent (1) Download Torrent (2)
Added February 7 2011
Categorymisc
Seeds / Peers1 / 3 Refresh Leechers
Size186.82 MB
Hash85355a84e7445fb721198c74703a93102f16c626
Files
285.43 KB Jennifer White.jpg
186.43 MB Jennifer White.m4v
Trackers
http://tracker.thepiratebay.org/announce
udp://tracker.thepiratebay.org:80/announce
udp://tracker.openbittorrent.com:80/announce
udp://tracker.publicbt.com:80/announce
http://tracker.publicbt.com/announce
http://exodus.1337x.org/announce
Description
Screenshot

http://8ba9e974.poontown.net

Video
ID                               : 1
Format                           : AVC
Format/Info                      : Advanced Video Codec
Format profile                   : [email protected]
Format settings, CABAC           : No
Format settings, ReFrames        : 2 frames
Codec ID                         : avc1
Codec ID/Info                    : Advanced Video Coding
Duration                         : 56mn 55s
Bit rate mode                    : Variable
Bit rate                         : 400 Kbps
Width                            : 480 pixels
Height                           : 272 pixels
Display aspect ratio             : 16:9
Frame rate mode                  : Variable
Frame rate                       : 23.976 fps
Minimum frame rate               : 23.974 fps
Maximum frame rate               : 23.981 fps
Color space                      : YUV
Chroma subsampling               : 4:2:0
Bit depth                        : 8 bits
Scan type                        : Progressive
Bits/(Pixel*Frame)               : 0.128
Stream size                      : 163 MiB (87%)
Writing library                  : x264 core 112


Audio
ID                               : 2
Format                           : AAC
Format/Info                      : Advanced Audio Codec
Format profile                   : LC
Codec ID                         : 40
Duration                         : 56mn 55s
Bit rate mode                    : Variable
Bit rate                         : 54.5 Kbps
Maximum bit rate                 : 64.2 Kbps
Channel(s)                       : 2 channels
Channel positions                : Front: L R
Sampling rate                    : 44.1 KHz
Compression mode                 : Lossy
Stream size                      : 22.2 MiB (12%)
Language                         : English

Screenshot

http://8ba9e974.poontown.net


Locations no locations

Related

FILE SIZE SEEDS PEERS ADDED
Anne Davis, Jennifer-The Key-(True Reign #1) - epub - zeke23 - misc Verified 868 KB 10 1 20 hours
Jennifer Shahade - Chess Bitch [Kindle azw3] - misc Verified 2.88 MB 1 0 20 hours
VA - Sexy Massage (65 Tracks For Erotic Massage) (2015) MP3 [320 kbps] - music Verified 825 MB 1 0 23 hours
[TeenFidelity]Kacy Lane - Massage Me part 2[.mp4] - misc Verified 645.32 MB 1 0 1 day
Anne Davis, Jennifer-War (The True Reign Series 3) - epub - zeke23 - misc Verified 884 KB 10 1 1 day
25 Sexy Jennifer Connelly Wallpapers Set 7 - misc Verified 14.2 MB 0 0 1 day
25 Sexy Hot Jennifer Lopez Wallpaper Set 21 - misc Verified 11.95 MB 20 11 2 days
TBL-101 Celeb Wife Tour Oily Massage 2 - misc Verified 1.77 GB 0 0 3 days
white girl hardcore oil massage - misc Verified 157.07 MB 15 2 3 days
Creep (2014) 720p WEB-DL DD5 1 Eng NL Subs TBS - movies Verified 2.36 GB 4 36 3 days
Creep (2014) HD2DVD DD5 1 NL Subs TBS - movies Verified 3.89 GB 5 22 3 days
CzechMassage - Massage 188 ** NEW Aug 24, 2015 ** 1080p H.265 HEVC-BlackTaurus - misc Verified 152.57 MB 9 2 4 days
TeenSleepOver 15 08 18 Love Massage 1080P MP4-GUSH - misc Verified 1.23 GB 0 14 5 days
Massage Or Bondage - Redhead Gets Bound And Fucked - misc Verified 275.65 MB 5 33 1 week
Fantasy Massage - Ashley Adams Steven St. CroixZZ.mp4 - misc Verified 409.65 MB 16 33 1 week
All Girl Massage - Maya Grand AJ ApplegateZZ.mp4 - misc Verified 356.65 MB 19 24 1 week
Lisa Ann (CumLouder - Massage With Surprise) - misc Verified 894.3 MB 0 0 1 week
CFNMTeens Vera Drake Ancient Dick Massage mp4 - misc Verified 324.07 MB 3 6 1 week
Jennifer Eight 1992 720p BluRay H264 AAC-RARBG - movies Verified 1.52 GB 0 0 1 week
[HDMassagePorn] Mackenzie ( College girl sex massage/NEW **20.08.15 **) [.mp4] - misc Verified 216.57 MB 17 33 1 week