Massage Creep - Jennifer White (XXX)(iPod,PSP,Zune)

Download Torrent (1) Download Torrent (2)
Added February 7 2011
Categorymisc
Seeds / Peers1 / 3 Refresh Leechers
Size186.82 MB
Hash85355a84e7445fb721198c74703a93102f16c626
Files
285.43 KB Jennifer White.jpg
186.43 MB Jennifer White.m4v
Trackers
http://tracker.thepiratebay.org/announce
udp://tracker.thepiratebay.org:80/announce
udp://tracker.openbittorrent.com:80/announce
udp://tracker.publicbt.com:80/announce
http://tracker.publicbt.com/announce
http://exodus.1337x.org/announce
Description
Screenshot

http://8ba9e974.poontown.net

Video
ID                               : 1
Format                           : AVC
Format/Info                      : Advanced Video Codec
Format profile                   : [email protected]
Format settings, CABAC           : No
Format settings, ReFrames        : 2 frames
Codec ID                         : avc1
Codec ID/Info                    : Advanced Video Coding
Duration                         : 56mn 55s
Bit rate mode                    : Variable
Bit rate                         : 400 Kbps
Width                            : 480 pixels
Height                           : 272 pixels
Display aspect ratio             : 16:9
Frame rate mode                  : Variable
Frame rate                       : 23.976 fps
Minimum frame rate               : 23.974 fps
Maximum frame rate               : 23.981 fps
Color space                      : YUV
Chroma subsampling               : 4:2:0
Bit depth                        : 8 bits
Scan type                        : Progressive
Bits/(Pixel*Frame)               : 0.128
Stream size                      : 163 MiB (87%)
Writing library                  : x264 core 112


Audio
ID                               : 2
Format                           : AAC
Format/Info                      : Advanced Audio Codec
Format profile                   : LC
Codec ID                         : 40
Duration                         : 56mn 55s
Bit rate mode                    : Variable
Bit rate                         : 54.5 Kbps
Maximum bit rate                 : 64.2 Kbps
Channel(s)                       : 2 channels
Channel positions                : Front: L R
Sampling rate                    : 44.1 KHz
Compression mode                 : Lossy
Stream size                      : 22.2 MiB (12%)
Language                         : English

Screenshot

http://8ba9e974.poontown.net


Locations no locations

Related

FILE SIZE SEEDS PEERS ADDED
Jennifer Nettles - That Girl (Target Exclusive Deluxe Edition) - 2014 (320 kbps) - music Verified 118.79 MB 0 1 14 hours
[Joymii] Sicilia - Erotic Massage [WEB-DL, 1080p] - misc Verified 887.3 MB 1 11 1 day
Poser - DAZ3D - i13 Massage Time + Poses [RO 104179, 104188] - software Verified 44.92 MB 8 6 2 days
[JoyMii] Sicilia - Erotic Massage (1080p) (24.04.2015) **NEW RELEASE** - misc Verified 886.32 MB 10 31 2 days
JoyMii - Sicilia - Erotic Massage ** NEW (April 24, 2015) NEW ** - misc Verified 241.07 MB 8 10 2 days
Jennifer Niven - All the Bright Places (retail) (epub) - Rocky_45 [CPUL] - misc Verified 2.47 MB 13 5 3 days
[NuruMassage]Asa Akira performs a new NuruMassage massage! - misc Verified 174.32 MB 9 9 3 days
Hillier, Jennifer-The Butcher - epub - zeke23 - misc Verified 339.2 KB 14 3 4 days
Sexually Broken-Jennifer White shackled on sybian and bound in the blowjob machine, brutal drooling deepthroat! Jennifer White High HD - Oral sex - Brunette - BDSMforever - misc Verified 135.82 MB 7 4 4 days
25 Sexy Hot Jennifer Lopez Wallpaper Set 14 - misc Verified 12.83 MB 13 15 4 days
(Trance) Giuseppe Ottaviani feat. Jennifer Rene - Lean on Me (2015) MP3, 320 Kbps [EDM RG] - music Verified 16.45 MB 3 0 6 days
[CzechMassage] Czech Massage 170 SD -=NEW APRIL 20,2015=-.mp4 - misc Verified 222.07 MB 2 7 1 week
Jennifer Probst - Op zoek naar geluk. NL Ebook. DMT - misc Verified 1.23 MB 31 7 1 week
Jennifer Ryan - When It's Right (Montana Men #2) - Rocky_45 [CPUL] - misc Verified 1.52 MB 1 29 1 week
[ShemaleYum] Jennifer (17.04.2015) 720p rq.mp4 - misc Verified 313.65 MB 1 0 1 week
[Siofuki Massage] Hot Asian Girl Get´s A Hot Massage [Part 01] (Uncensored) - misc Verified 304.32 MB 25 38 1 week
Nuru Massage Asian cock stuffed in cute Blond mp4 - misc Verified 133.07 MB 17 7 1 week
SexuallyBroken 2015-04-17 Tightly tied brunette Jennifer White roughly fucked in bed bondage with brutal deepthroat 720p MP4 {The Rat Bastards} - misc Verified 504.65 MB 1 34 1 week
Faye, Jennifer-Harlequin Romance April 2015 Box Set - epub - zeke23 - misc Verified 2.14 MB 13 5 1 week
[FakeHospital] Jana Prochazkova (Doctor prescribes an erotic massage for sexy blonde patient - 17.04.15) rq (404p).mp4 - misc Verified 363.15 MB 19 18 1 week