Massage Creep - Jennifer White (XXX)(iPod,PSP,Zune)

Download Torrent (1) Download Torrent (2)
Added February 7 2011
Categorymisc
Seeds / Peers1 / 3 Refresh Leechers
Size186.82 MB
Hash85355a84e7445fb721198c74703a93102f16c626
Files
285.43 KB Jennifer White.jpg
186.43 MB Jennifer White.m4v
Trackers
http://tracker.thepiratebay.org/announce
udp://tracker.thepiratebay.org:80/announce
udp://tracker.openbittorrent.com:80/announce
udp://tracker.publicbt.com:80/announce
http://tracker.publicbt.com/announce
http://exodus.1337x.org/announce
Description
Screenshot

http://8ba9e974.poontown.net

Video
ID                               : 1
Format                           : AVC
Format/Info                      : Advanced Video Codec
Format profile                   : [email protected]
Format settings, CABAC           : No
Format settings, ReFrames        : 2 frames
Codec ID                         : avc1
Codec ID/Info                    : Advanced Video Coding
Duration                         : 56mn 55s
Bit rate mode                    : Variable
Bit rate                         : 400 Kbps
Width                            : 480 pixels
Height                           : 272 pixels
Display aspect ratio             : 16:9
Frame rate mode                  : Variable
Frame rate                       : 23.976 fps
Minimum frame rate               : 23.974 fps
Maximum frame rate               : 23.981 fps
Color space                      : YUV
Chroma subsampling               : 4:2:0
Bit depth                        : 8 bits
Scan type                        : Progressive
Bits/(Pixel*Frame)               : 0.128
Stream size                      : 163 MiB (87%)
Writing library                  : x264 core 112


Audio
ID                               : 2
Format                           : AAC
Format/Info                      : Advanced Audio Codec
Format profile                   : LC
Codec ID                         : 40
Duration                         : 56mn 55s
Bit rate mode                    : Variable
Bit rate                         : 54.5 Kbps
Maximum bit rate                 : 64.2 Kbps
Channel(s)                       : 2 channels
Channel positions                : Front: L R
Sampling rate                    : 44.1 KHz
Compression mode                 : Lossy
Stream size                      : 22.2 MiB (12%)
Language                         : English

Screenshot

http://8ba9e974.poontown.net


Locations no locations

Related

FILE SIZE SEEDS PEERS ADDED
Iggy Azalea Ft. Jennifer Hudson - Trouble [Music Video] 720p [Sbyky] - movies Verified 42.89 MB 1 0 11 hours
Iggy Azalea Ft. Jennifer Hudson - Trouble [Music Video] 1080p [Sbyky] - movies Verified 89.54 MB 1 0 11 hours
Rub A Teen Madison Massage With A Side Of Anal XXXtremes mp4 - misc Verified 613.3 MB 2 9 20 hours
[HDMassagePorn] Zejinka - Fabulous massage porn with a filthy chick [.mp4] - misc Verified 298.65 MB 12 18 2 days
Megan Salinas - Oil Massage and Hot Fuck - misc Verified 175.32 MB 1 0 3 days
[HDMassagePorn] Naughty blonde wants hot erotic massage [.mp4] - misc Verified 282.15 MB 0 10 3 days
[HDMassagePorn] Violette Pure (Naughty blonde wants hot erotic massage - hmp0134 - 02.03.15) rq (720p).mp4 - misc Verified 282.15 MB 32 28 3 days
HDMassagePornWTFPass - Julia - Cool massage fuck video with anal sex - 1080p - misc Verified 744.3 MB 0 25 3 days
Iggy Azalea feat Jennifer Hudson - Trouble 720p REPACK x264 2015-TGMVHD - music Verified 65.04 MB 7 2 4 days
Rub A Teen - Madison (Massage With A Side Of Anal) - misc Verified 613.07 MB 3 15 4 days
CzechMassage - Massage 160 - misc Verified 89.56 MB 11 5 4 days
Massage Girls 18 - NADIA NOODLE - Bitch Need Some Alfredo Sauce - 720p [.wmv] - misc Verified 596.32 MB 35 46 5 days
Yanna - Erotic Outcall Massage HD 1080p - misc Verified 1.52 GB 0 0 5 days
Sting (Spark Series #4) - Jennifer Ryder.epub - misc Verified 339.2 KB 12 2 5 days
Iggy Azalea feat Jennifer Hudson - Trouble 720p x264 2015-TGMVHD - music Verified 67.79 MB 5 5 6 days
KarupsOW Jennifer hd 720 26 february 2015 - misc Verified 890.82 MB 12 12 6 days
CzechMassage 15 02 26 Massage 160 XXX 720p WMV-KTR - misc Verified 287.25 MB 15 17 1 week
JAV Censored SCOP-283 During Rookie Training In Oil Massage Shop, "Hey, Out To In" To The Big Tits Y - misc Verified 6.62 GB 52 73 1 week
Jennifer Lopez - Feel The Light (Lyric Version) (Theme From Home) 720p x264 2015-TGMVHD - music Verified 39.96 MB 3 7 1 week
BRAZZERS - Dirty Masseur - Internal Deep Tissue Massage - Holly Michaels [SM128] mkv - misc Verified 232.07 MB 2 53 1 week