Massage Creep - Jennifer White (XXX)(iPod,PSP,Zune)

Download Torrent (1) Download Torrent (2)
Added February 7 2011
Categorymisc
Seeds / Peers1 / 3 Refresh Leechers
Size186.82 MB
Hash85355a84e7445fb721198c74703a93102f16c626
Files
285.43 KB Jennifer White.jpg
186.43 MB Jennifer White.m4v
Trackers
http://tracker.thepiratebay.org/announce
udp://tracker.thepiratebay.org:80/announce
udp://tracker.openbittorrent.com:80/announce
udp://tracker.publicbt.com:80/announce
http://tracker.publicbt.com/announce
http://exodus.1337x.org/announce
Description
Screenshot

http://8ba9e974.poontown.net

Video
ID                               : 1
Format                           : AVC
Format/Info                      : Advanced Video Codec
Format profile                   : [email protected]
Format settings, CABAC           : No
Format settings, ReFrames        : 2 frames
Codec ID                         : avc1
Codec ID/Info                    : Advanced Video Coding
Duration                         : 56mn 55s
Bit rate mode                    : Variable
Bit rate                         : 400 Kbps
Width                            : 480 pixels
Height                           : 272 pixels
Display aspect ratio             : 16:9
Frame rate mode                  : Variable
Frame rate                       : 23.976 fps
Minimum frame rate               : 23.974 fps
Maximum frame rate               : 23.981 fps
Color space                      : YUV
Chroma subsampling               : 4:2:0
Bit depth                        : 8 bits
Scan type                        : Progressive
Bits/(Pixel*Frame)               : 0.128
Stream size                      : 163 MiB (87%)
Writing library                  : x264 core 112


Audio
ID                               : 2
Format                           : AAC
Format/Info                      : Advanced Audio Codec
Format profile                   : LC
Codec ID                         : 40
Duration                         : 56mn 55s
Bit rate mode                    : Variable
Bit rate                         : 54.5 Kbps
Maximum bit rate                 : 64.2 Kbps
Channel(s)                       : 2 channels
Channel positions                : Front: L R
Sampling rate                    : 44.1 KHz
Compression mode                 : Lossy
Stream size                      : 22.2 MiB (12%)
Language                         : English

Screenshot

http://8ba9e974.poontown.net


Locations no locations

Related

FILE SIZE SEEDS PEERS ADDED
CzechMassage 14 12 18 Massage 140 XXX 720p WMV KTR - misc Verified 341.07 MB 27 21 14 hours
[ImmoralLive] Jennifer White, Heidi Hollywood and Skylar Green (Prick And Treat For 3 Attractive Harlots / 12.16.2014) - misc Verified 974.07 MB 1 0 1 day
[CzechMassage] - Massage 140 [Czechav] - NEW 18 DECEMBER 2014 NEW - misc Verified 246.82 MB 2 9 1 day
Jennifer Zulli - Goddess Rising (2014) FLAC - music Verified 299.65 MB 0 0 1 day
[Dirty Masseur] - 12.17.14 - Kayla Kayden [Massage My Daughter] [480p] [PornLeech] [.mp4] - misc Verified 993.07 MB 42 222 2 days
[DirtyMasseur] Kayla Kayden in Massage My Daughter (2014) SiteRip - misc Verified 530.32 MB 12 5 2 days
BRAZZERS - DirtyMasseur - Kayla Kayden - Massage My Daughter - December 17, 2014 NEW - misc Verified 531.3 MB 27 105 2 days
Dirty Masseur - Kayla Kayden { Massage My Daughter - 12.17.2014 - Brazzers }** NEW December 17, 2014 ** SD MP4 - misc Verified 993.3 MB 16 45 2 days
DirtyMasseur.Kirsten.Price.Birthday.Massage.Suprise.mp4s - misc Verified 269.82 MB 9 10 3 days
Killergram - Jasmine Jae (An All Over Massage) - misc Verified 813.07 MB 25 92 3 days
25 Sexy Hot Jennifer Lopez Wallpaper Set 8 - misc Verified 14.39 MB 26 3 4 days
Pure Passion - Erotic Massage Stories 5 XXX DVDRip - misc Verified 1.09 GB 0 0 1 week
Twistys - Tasha Reign A Hot Massage (2014 Dec 09) XXX iMAGESET By OHRLY - [DZPirate] - misc Verified 150.82 MB 23 14 1 week
The Hanging Tree’ James Newton Howard ft. Jennifer Lawrence - 2014 320Kbps MP3 AnonCrypt - music Verified 8.22 MB 0 0 1 week
[NEW] Jennifer Foor - Christian [Mitchell - Healey #3] [8th Dec 2014] [epub] {Ani7Wak} - misc Verified 707.2 KB 1 0 1 week
[Mofos] Alexa Rydell | Fuck on the Massage Table [480p] - misc Verified 657.3 MB 1 0 1 week
[Massage Creep] Chase Ryder (Afternoon Rubdown) [PornLeech] - misc Verified 280.07 MB 0 0 1 week
[Massage Creep] Anissa Kate (Labia Therapy) [PornLeech] - misc Verified 303.57 MB 0 0 1 week
[InGangWeBang] Christine Lee, Jasmine Black, Jennifer Morante, Tilly Hardy (Gym Class Fuckers) [.mp4][PornLeech] - misc Verified 321.65 MB 0 0 1 week
Chodu Bhabhi Ka Body Massage Aur Chudai - misc Verified 103.91 MB 0 0 1 week