Massage Creep - Jennifer White (XXX)(iPod,PSP,Zune)

Download Torrent (1) Download Torrent (2)
Added February 7 2011
Categorymisc
Seeds / Peers1 / 3 Refresh Leechers
Size186.82 MB
Hash85355a84e7445fb721198c74703a93102f16c626
Files
285.43 KB Jennifer White.jpg
186.43 MB Jennifer White.m4v
Trackers
http://tracker.thepiratebay.org/announce
udp://tracker.thepiratebay.org:80/announce
udp://tracker.openbittorrent.com:80/announce
udp://tracker.publicbt.com:80/announce
http://tracker.publicbt.com/announce
http://exodus.1337x.org/announce
Description
Screenshot

http://8ba9e974.poontown.net

Video
ID                               : 1
Format                           : AVC
Format/Info                      : Advanced Video Codec
Format profile                   : [email protected]
Format settings, CABAC           : No
Format settings, ReFrames        : 2 frames
Codec ID                         : avc1
Codec ID/Info                    : Advanced Video Coding
Duration                         : 56mn 55s
Bit rate mode                    : Variable
Bit rate                         : 400 Kbps
Width                            : 480 pixels
Height                           : 272 pixels
Display aspect ratio             : 16:9
Frame rate mode                  : Variable
Frame rate                       : 23.976 fps
Minimum frame rate               : 23.974 fps
Maximum frame rate               : 23.981 fps
Color space                      : YUV
Chroma subsampling               : 4:2:0
Bit depth                        : 8 bits
Scan type                        : Progressive
Bits/(Pixel*Frame)               : 0.128
Stream size                      : 163 MiB (87%)
Writing library                  : x264 core 112


Audio
ID                               : 2
Format                           : AAC
Format/Info                      : Advanced Audio Codec
Format profile                   : LC
Codec ID                         : 40
Duration                         : 56mn 55s
Bit rate mode                    : Variable
Bit rate                         : 54.5 Kbps
Maximum bit rate                 : 64.2 Kbps
Channel(s)                       : 2 channels
Channel positions                : Front: L R
Sampling rate                    : 44.1 KHz
Compression mode                 : Lossy
Stream size                      : 22.2 MiB (12%)
Language                         : English

Screenshot

http://8ba9e974.poontown.net


Locations no locations

Related

FILE SIZE SEEDS PEERS ADDED
CzechAV Massage 184 mp4 - misc Verified 157.07 MB 6 3 2 days
[CzechMassage/Czechav]Amateurs - Czech Massage 184 - misc Verified 157.07 MB 8 10 2 days
[Request] Pirate Next Door - (Regency Pirates 1) - Jennifer Ashley {~DarkU$3R~} [InDi@n D@rk D3vil] - misc Verified 339.2 KB 0 0 2 days
[Request] The Pirate Hunter's Lady - (Regency Pirates 2) - Jennifer Ashley {~DarkU$3R~} [InDi@n D@rk D3vil] - misc Verified 307.2 KB 0 0 2 days
Every Last Breath - (Dark Elements 3) - Jennifer L. Armentrout {~DarkU$3R~} [InDi@n D@rk D3vil] - misc Verified 387.2 KB 8 1 3 days
Spiders Trap - (Elemental Assassin 13) - Jennifer Estep {~DarkU$3R~} [InDi@n D@rk D3vil] - misc Verified 964 KB 2 0 3 days
Theory and Practice of Therapeutic Massage, 5e - Mark F. Beck [PDF] [Deth] - misc Verified 71.41 MB 16 7 4 days
[-HDMassagePorn-] Serena [-Filthy Brunette Loves Ass Massage-] 720p - misc Verified 258.82 MB 70 55 5 days
[Request] Members Only (1-3) - Jennifer Kacey {~DarkU$3R~} - misc Verified 611.2 KB 2 3 5 days
Ryan, Jennifer-When Its Right(Montana Men #2) - epub - zeke23 - misc Verified 1.57 MB 12 1 5 days
Snow, Jennifer-Breaking Her Rules(Beyond the Cage #1) - epub - zeke23 - misc Verified 332.8 KB 13 2 5 days
Accidental Voyeur By Jennifer Kacey EPUB,MOBI,AZW3 ~Lizzyz - misc Verified 451.2 KB 0 0 5 days
Full Service Massage 3 {2015} XXX-Split Scenes - misc Verified 1.62 GB 5 62 5 days
Complete Self Massage Workbook - misc Verified 5.7 MB 37 10 1 week
ImmoralLIVE Sara Jay Jennifer White Cock Sucking Challenge Finals with Sara Jay Jennifer White mp4 - misc Verified 436.82 MB 1 4 1 week
ImmoralLIVE.Sara.Jay.Jennifer.White.Cock.Sucking.Challenge.Finals.with.Sara.Jay.Jennifer.White.mp4 - misc Verified 436.82 MB 2 4 1 week
[HDMassagePorn/Wtfpass]Jenny - Lusty blondie's private massage - misc Verified 232.82 MB 12 19 1 week
Breaking Her Rules - (Beyond the Cage 1) - Jennifer Snow {~DarkU$3R~} - misc Verified 323.2 KB 1 0 1 week
HDMassagePorn Izi Great bum massage for a bombshell - misc Verified 217.32 MB 25 12 1 week
CzechMassage 15 07 20 Massage 183 1080p MP4-KTR - misc Verified 418.82 MB 1 12 1 week