Public Invasion- Sex On Train Station (XXX)(iPod,PSP,Zune)

Download Torrent (1) Download Torrent (2)
Added February 19 2011
Categorymisc
Seeds / Peers2 / 39 Refresh Leechers
Size126.29 MB
Hashcbb950aea24c0bc23771d0d2a7c7f1e5cc8b113b
Files
125.89 MB Publicinvasion- Sex On Train Station.m4v
301.34 KB Screen.jpg
Trackers
http://tracker.thepiratebay.org/announce
udp://tracker.thepiratebay.org:80/announce
udp://tracker.openbittorrent.com:80/announce
udp://tracker.publicbt.com:80/announce
http://tracker.publicbt.com/announce
http://exodus.1337x.org/announce
Description
Screenshots:

http://54099306.linkbabes.com

Video
ID                               : 1
Format                           : AVC
Format/Info                      : Advanced Video Codec
Format profile                   : [email protected]
Format settings, CABAC           : No
Format settings, ReFrames        : 2 frames
Codec ID                         : avc1
Codec ID/Info                    : Advanced Video Coding
Duration                         : 42mn 20s
Bit rate mode                    : Variable
Bit rate                         : 350 Kbps
Width                            : 364 pixels
Height                           : 272 pixels
Display aspect ratio             : 4:3
Frame rate mode                  : Variable
Frame rate                       : 23.976 fps
Minimum frame rate               : 23.974 fps
Maximum frame rate               : 23.981 fps
Color space                      : YUV
Chroma subsampling               : 4:2:0
Bit depth                        : 8 bits
Scan type                        : Progressive
Bits/(Pixel*Frame)               : 0.147
Stream size                      : 106 MiB (84%)
Writing library                  : x264 core 112

Audio
ID                               : 2
Format                           : AAC
Format/Info                      : Advanced Audio Codec
Format profile                   : LC
Codec ID                         : 40
Duration                         : 42mn 20s
Bit rate mode                    : Variable
Bit rate                         : 62.3 Kbps
Maximum bit rate                 : 126 Kbps
Channel(s)                       : 2 channels
Channel positions                : Front: L R
Sampling rate                    : 44.1 KHz
Compression mode                 : Lossy
Stream size                      : 18.9 MiB (15%)
Language                         : English

More Torrents...

http://thepiratebay.org/user/punter21

Locations no locations

Related

FILE SIZE SEEDS PEERS ADDED
The Forest Public Alpha v0.19B - games Verified 1.02 GB 5 10 2 days
Public Nude Window Washer - misc Verified 376.15 MB 1 30 3 days
DARING PUBLIC NUDITY USA 1 - misc Verified 515.3 MB 1 36 3 days
Daring Public Nudity On The Busy Streets Of America 3 - Requested - misc Verified 319.15 MB 0 0 4 days
[Anna Brickhouse] Transamerican Literary Relations and the Nineteenth-Century Public Sphere (Cambridge Studies in American Literature and Culture) (pdf){Zzzzz}[BЯ] - misc Verified 1.72 MB 1 0 4 days
Public Domain Resource - Six Years (2015) Album @ MP3 / 320Kbps [EDM RG] - music Verified 167.57 MB 1 0 5 days
Rabbids Invasion S02E08 480p x264-mSD - series Verified 91.04 MB 0 0 6 days
Lolly Gartner - Lolly Rides Again, Public Fucking Extravaganza HD 1080p - misc Verified 1.26 GB 12 26 1 week
PublicPickUps - Bubble Butt Blonde Public Seduction - Ani Blackfox [720p].mp4 - misc Verified 735.07 MB 32 23 1 week
Outrageous.Acts.of.Psych.S01E07.Public.Displays.of.Rejection.HDTV.x264-W4F - series Verified 185.07 MB 16 5 1 week
[Public Pick Ups] 2015-06-21 Ani Blackfox (Bubble Butt Blonde Public Seduction) [1080p] - misc Verified 3.17 GB 1 0 1 week
Outrageous Acts of Psych S01E07 Public Displays of Rejection 720p HDTV x264-DHD - series Verified 666.07 MB 0 0 1 week
Sex in public Cinema - misc Verified 101.79 MB 41 40 1 week
Reich, Christopher-Invasion of Privacy a Novel - epub - zeke23 - misc Verified 627.2 KB 21 8 1 week
Brunette Painful Anal Fucking on Public Road with High Heels Cumshot on Ass - misc Verified 141.57 MB 17 14 1 week
Hot Russian Car Show Teens - Nude In Public - misc Verified 110.31 MB 15 27 2 weeks
Public Agent, Ep 302 - Hot Brunette Spreads Her Legs For Outdoor Fucking HD 1080p - misc Verified 1.31 GB 19 38 2 weeks
PublicBang - Lolly Gartner (Lolly Rides Again! Public Fucking Extravaganza!) NEW 17 June 2015 - misc Verified 221.07 MB 42 22 2 weeks
Perfect Czech Teen Girl Nice Public Sex - misc Verified 357.65 MB 1 31 2 weeks
Perfect Czech Teen Girl Nice Public Sex.avi - misc Verified 358.15 MB 1 0 2 weeks