Public Invasion- Sex On Train Station (XXX)(iPod,PSP,Zune)

Download Torrent (1) Download Torrent (2)
Added February 19 2011
Categorymisc
Seeds / Peers2 / 39 Refresh Leechers
Size126.29 MB
Hashcbb950aea24c0bc23771d0d2a7c7f1e5cc8b113b
Files
125.89 MB Publicinvasion- Sex On Train Station.m4v
301.34 KB Screen.jpg
Trackers
http://tracker.thepiratebay.org/announce
udp://tracker.thepiratebay.org:80/announce
udp://tracker.openbittorrent.com:80/announce
udp://tracker.publicbt.com:80/announce
http://tracker.publicbt.com/announce
http://exodus.1337x.org/announce
Description
Screenshots:

http://54099306.linkbabes.com

Video
ID                               : 1
Format                           : AVC
Format/Info                      : Advanced Video Codec
Format profile                   : [email protected]
Format settings, CABAC           : No
Format settings, ReFrames        : 2 frames
Codec ID                         : avc1
Codec ID/Info                    : Advanced Video Coding
Duration                         : 42mn 20s
Bit rate mode                    : Variable
Bit rate                         : 350 Kbps
Width                            : 364 pixels
Height                           : 272 pixels
Display aspect ratio             : 4:3
Frame rate mode                  : Variable
Frame rate                       : 23.976 fps
Minimum frame rate               : 23.974 fps
Maximum frame rate               : 23.981 fps
Color space                      : YUV
Chroma subsampling               : 4:2:0
Bit depth                        : 8 bits
Scan type                        : Progressive
Bits/(Pixel*Frame)               : 0.147
Stream size                      : 106 MiB (84%)
Writing library                  : x264 core 112

Audio
ID                               : 2
Format                           : AAC
Format/Info                      : Advanced Audio Codec
Format profile                   : LC
Codec ID                         : 40
Duration                         : 42mn 20s
Bit rate mode                    : Variable
Bit rate                         : 62.3 Kbps
Maximum bit rate                 : 126 Kbps
Channel(s)                       : 2 channels
Channel positions                : Front: L R
Sampling rate                    : 44.1 KHz
Compression mode                 : Lossy
Stream size                      : 18.9 MiB (15%)
Language                         : English

More Torrents...

http://thepiratebay.org/user/punter21

Locations no locations

Related

FILE SIZE SEEDS PEERS ADDED
WWE-TNA-ROH-HOH VI West Coast Invasion 2014 WebDL x264-NoNeYa mp4 - series Verified 1.23 GB 5 31 10 hours
Yasmin Lee and Eli Hunter / Close Encounters of a Kinky Kind- Yasmin Lee Alien Ass Invasion! (04.03.2015) SiteRip - misc Verified 494.15 MB 7 10 20 hours
Public Agent - Suzy - E273 - Brunette Babe with an incredible Body [HD] - misc Verified 930.3 MB 7 25 1 day
Jr. Boss - Public Enemy No. 1 (Hosted By Bigga Rankin, DJ Frank White, DJ Winn & DJ Smallz)-2015-MIXFIEND - music Verified 165.29 MB 1 6 1 day
The Invisible Invasion (v1-v3) (2014) (Digital) (Minutemen-WTF) (- Nem -) - misc Verified 116.16 MB 1 0 3 days
Bellator 134: Newton vs. McGeary [The British Invasion] (Full Event) [27.02.2015, ViLLAiNS | NWCHD, 720p, ENG] - series Verified 6.93 GB 14 20 4 days
Public Pick Ups - KEIRA { Euro Brunette Rides Cock - 03.01.2015 - Mofos } ** NEW March 01, 2015 ** 720p - misc Verified 2.14 GB 5 27 4 days
Public Pick Ups - KEIRA (Euro Brunette Rides Cock / Mofos) ** NEW 01,03,2015 ** - misc Verified 240.82 MB 20 23 4 days
Lesbian.Public.Sex.Fetish.2.XXX.DVDRip.x264-CHiKANi - misc Verified 2.13 GB 47 83 1 week
Samuel Hawley - The Imjin War_Japans Sixteenth-Century Invasion of Korea and Attempt to Conquer China - misc Verified 1.08 MB 22 1 1 week
Asylum S01E03 - Public Relations x264 RB58 - series Verified 305.07 MB 11 5 1 week
Mesrine L Ennemi Public n 1 REPACK 1CD FRENCH BDRip XviD-SURVIVAL - movies Verified 700.07 MB 98 14 1 week
Evil Angel - 02 18 15 - Dana Vespoli Kalina Ryu - Lesbian Public Sex Fetish 02 Scene 04 - 400p - misc Verified 362.32 MB 2 14 2 weeks
Evil Angel - 02 18 15 - Dana Vespoli Kalina Ryu - Lesbian Public Sex Fetish 02 Scene 04 - 720p - misc Verified 1.34 GB 0 16 2 weeks
Alaska State Troopers S07E01 Home Invasion Manhunt 720p HDTV x264-W4F - series Verified 990.82 MB 1 24 2 weeks
Lesbian Public Sex Fetish #2 (2015) WEB-DL - misc Verified 2.13 GB 6 18 2 weeks
PickUpFuck - Angel Rivas, Zena (Hot public fuck with teen chick) 576p March 28, 2010 - misc Verified 559.3 MB 29 31 2 weeks
Asian Invasion 4 Compare And Contrast Adrianna Luna amp Yuki Mori - misc Verified 676.07 MB 0 42 2 weeks
[EvilAngel] Dana Vespoli, Dani Daniels (Lesbian Public Sex Fetish 02, Scene 02 - 16.02.15) rq.mp4 - misc Verified 461.15 MB 36 60 2 weeks
The Invasion (2007) DVDrip [H264] - movies Verified 982.57 MB 22 21 2 weeks