Public Invasion- Sex On Train Station (XXX)(iPod,PSP,Zune)

Download Torrent (1) Download Torrent (2)
Added February 19 2011
Categorymisc
Seeds / Peers2 / 39 Refresh Leechers
Size126.29 MB
Hashcbb950aea24c0bc23771d0d2a7c7f1e5cc8b113b
Files
125.89 MB Publicinvasion- Sex On Train Station.m4v
301.34 KB Screen.jpg
Trackers
http://tracker.thepiratebay.org/announce
udp://tracker.thepiratebay.org:80/announce
udp://tracker.openbittorrent.com:80/announce
udp://tracker.publicbt.com:80/announce
http://tracker.publicbt.com/announce
http://exodus.1337x.org/announce
Description
Screenshots:

http://54099306.linkbabes.com

Video
ID                               : 1
Format                           : AVC
Format/Info                      : Advanced Video Codec
Format profile                   : [email protected]
Format settings, CABAC           : No
Format settings, ReFrames        : 2 frames
Codec ID                         : avc1
Codec ID/Info                    : Advanced Video Coding
Duration                         : 42mn 20s
Bit rate mode                    : Variable
Bit rate                         : 350 Kbps
Width                            : 364 pixels
Height                           : 272 pixels
Display aspect ratio             : 4:3
Frame rate mode                  : Variable
Frame rate                       : 23.976 fps
Minimum frame rate               : 23.974 fps
Maximum frame rate               : 23.981 fps
Color space                      : YUV
Chroma subsampling               : 4:2:0
Bit depth                        : 8 bits
Scan type                        : Progressive
Bits/(Pixel*Frame)               : 0.147
Stream size                      : 106 MiB (84%)
Writing library                  : x264 core 112

Audio
ID                               : 2
Format                           : AAC
Format/Info                      : Advanced Audio Codec
Format profile                   : LC
Codec ID                         : 40
Duration                         : 42mn 20s
Bit rate mode                    : Variable
Bit rate                         : 62.3 Kbps
Maximum bit rate                 : 126 Kbps
Channel(s)                       : 2 channels
Channel positions                : Front: L R
Sampling rate                    : 44.1 KHz
Compression mode                 : Lossy
Stream size                      : 18.9 MiB (15%)
Language                         : English

More Torrents...

http://thepiratebay.org/user/punter21

Locations no locations

Related

FILE SIZE SEEDS PEERS ADDED
PublicBang - Ava Dalush - Thick Pussy Banged In Public ** NEW (Bang Bros / December 09, 2014) NEW ** - misc Verified 388.15 MB 2 66 1 day
Wild public lesbian sex show - misc Verified 139.82 MB 1 0 1 week
[BangBros] PublicBang | Ava Dalush | Thick Pussy Banged In Public | Dec 9, 2014 [480p] - misc Verified 388.15 MB 0 0 1 week
Demon Beast Invasion Youjuu Kyoushitsu 妖獣教室 ep2 [eng subs uncensored] - misc Verified 350.07 MB 0 0 1 week
European Invasion - misc Verified 774.5 MB 1 0 2 weeks
Rita Moor - Blonde cutie stars in public fuck video for cash - misc Verified 242.07 MB 0 0 2 weeks
[MyDirtyHobby] Merry4Fun - Public Black Blow [HD720p] .flv - misc Verified 421.15 MB 0 0 3 weeks
Rabbids Invasion S02E05 720p WEBRip AAC2 0 H 264 - series Verified 380.82 MB 3 0 3 weeks
OrgyFeast.14.09.29.Public.Sex.With.Two.Hot.Sluts.XXX.MP4.oRo - misc Verified 471.82 MB 1 0 3 weeks
OrgyFeast14 09 29 Public Sex With Two Hot Sluts MP4-oRo - misc Verified 494.25 MB 0 0 3 weeks
PublicPickUps - Lilia Rafael (Lilias Outdoor Public Sex) NEW November 23, 2014 - misc Verified 298.15 MB 1 0 3 weeks
Homemade Teen from Voyeurweb Alicia 18 Public Nudity - misc Verified 15.56 MB 5 4 4 weeks
My Public Blowjob - misc Verified 897.32 MB 0 1 4 weeks
PublicBang - Ria Rodriguez (Fucking A Petite Amateur In Public) NEW 18 November 2014 mp4 - misc Verified 286.32 MB 1 0 1 month
PublicBang - Ria Rodriguez (Fucking A Petite Amateur In Public) NEW 18 November 2014 - misc Verified 206.82 MB 1 1 1 month
Flash-in-Public - Alina S - At a beach (Nov 11, 2014) - misc Verified 28.63 MB 12 3 1 month
Lesbian Public Sex Fetish - Maxillion - misc Verified 1.07 GB 0 0 1 month
SEXY amateur Czech student is paid for intense public sex [email protected] - misc Verified 96.39 MB 1 0 1 month
PublicBang Latina Milf anal fucked in public 11.11 (2014) SiteRip - misc Verified 177.57 MB 14 11 1 month
BANGBROS - PublicBang - Soffie - Latina Milf anal fucked in public - Nov 11, 2014 NEW.mp4 - misc Verified 177.57 MB 1 0 1 month