Public Invasion- Sex On Train Station (XXX)(iPod,PSP,Zune)

Download Torrent (1) Download Torrent (2)
Added February 19 2011
Categorymisc
Seeds / Peers2 / 39 Refresh Leechers
Size126.29 MB
Hashcbb950aea24c0bc23771d0d2a7c7f1e5cc8b113b
Files
125.89 MB Publicinvasion- Sex On Train Station.m4v
301.34 KB Screen.jpg
Trackers
http://tracker.thepiratebay.org/announce
udp://tracker.thepiratebay.org:80/announce
udp://tracker.openbittorrent.com:80/announce
udp://tracker.publicbt.com:80/announce
http://tracker.publicbt.com/announce
http://exodus.1337x.org/announce
Description
Screenshots:

http://54099306.linkbabes.com

Video
ID                               : 1
Format                           : AVC
Format/Info                      : Advanced Video Codec
Format profile                   : [email protected]
Format settings, CABAC           : No
Format settings, ReFrames        : 2 frames
Codec ID                         : avc1
Codec ID/Info                    : Advanced Video Coding
Duration                         : 42mn 20s
Bit rate mode                    : Variable
Bit rate                         : 350 Kbps
Width                            : 364 pixels
Height                           : 272 pixels
Display aspect ratio             : 4:3
Frame rate mode                  : Variable
Frame rate                       : 23.976 fps
Minimum frame rate               : 23.974 fps
Maximum frame rate               : 23.981 fps
Color space                      : YUV
Chroma subsampling               : 4:2:0
Bit depth                        : 8 bits
Scan type                        : Progressive
Bits/(Pixel*Frame)               : 0.147
Stream size                      : 106 MiB (84%)
Writing library                  : x264 core 112

Audio
ID                               : 2
Format                           : AAC
Format/Info                      : Advanced Audio Codec
Format profile                   : LC
Codec ID                         : 40
Duration                         : 42mn 20s
Bit rate mode                    : Variable
Bit rate                         : 62.3 Kbps
Maximum bit rate                 : 126 Kbps
Channel(s)                       : 2 channels
Channel positions                : Front: L R
Sampling rate                    : 44.1 KHz
Compression mode                 : Lossy
Stream size                      : 18.9 MiB (15%)
Language                         : English

More Torrents...

http://thepiratebay.org/user/punter21

Locations no locations

Related

FILE SIZE SEEDS PEERS ADDED
Encyclopedia of Public Health A-Z (2 Volume Set) (2008).pdf Gooner - misc Verified 73.54 MB 44 24 1 day
Invasion: Lost in Time (2015) PC [FINAL] - games Verified 552.3 MB 0 0 2 days
PublicAgent Kitty Lovedream Black haired babe fucks stranger for cash in public mp4 - misc Verified 655.82 MB 14 12 2 days
Lincoln and the Power of the Press - The War for Public Opinion - Harold Holzer - misc Verified 847.65 MB 13 22 4 days
PublicBang - Blondie Fesser (Big Booty Blondie Fesser Takes a Public Pounding / BangBros) sd NEW July 29, 2015 - misc Verified 380.57 MB 462 385 5 days
Smugglers V: Invasion + Warrior Within DLC (GOG) - games Verified 88.27 MB 1 0 1 week
PublicAgent - Slim blonde cheats on hubby for cash in public-[rarbg com] - misc Verified 639.07 MB 152 158 1 week
Public Enemy [Greatest Misses] [rap/conscious/hiphop/politicalfieldrant/electronic/strongisland/turntablism/alternrap/experimental] [1992] [FLAC] [CodeTempest] - music Verified 453.82 MB 1 3 1 week
Public Enemy [Apocalypse 91... The Enemy Strikes Black] [rap/conscious/hiphop/politicalfieldrant/electronic/strongisland] [1991] [FLAC] [CodeTempest] - music Verified 447.57 MB 2 5 1 week
Public Enemy [Fear Of A Black Planet] [rap/conscious/hiphop/politicalfieldrant/electronic/strongisland/alternrap] [1990] [FLAC] [CodeTempest] - music Verified 479.32 MB 1 5 1 week
Invasion Of The Job Snatchers S01E06 HDTV x264-C4TV [GloTV] - series Verified 444.5 MB 0 1 1 week
Public Enemy [Yo! Bum Rush The Show] [rap/conscious/hiphop/politicalfieldrant/electronic/strongisland/turntablism/alternrap/experimental] [1987] [FLAC] [CodeTempest] - music Verified 383.32 MB 1 0 1 week
Public Enemy [It Takes A Nation Of Millions To Hold Us Back] [rap/conscious/hiphop/politicalfieldrant/electronic/strongisland/turntablism/alternrap/experimental] [1988] [FLAC] [CodeTempest] - music Verified 451.07 MB 1 5 1 week
How Not To Behave S01E01 Public Spaces PDTV x264-CBFM - series Verified 203.29 MB 0 0 1 week
[MyDirtyHobby] SexyRia - Extrem Public! Riskanter geht nicht mehr[.mp4] - misc Verified 296.82 MB 3 11 1 week
Hidden Secrets - Part 10 - The Blood Moons and The Archon Invasion - movies Verified 6.55 GB 2 2 1 week
[MyDirtyHobby]Young-Dev0tion - Public - Per Anhalter auf dem Rastplatz - misc Verified 223.57 MB 16 12 1 week
(2015) Public Enemy – Man Plans God Laughs - music Verified 64.31 MB 1 0 2 weeks
How.Not.To.Behave.s01e01.Public.Spaces.360p.LDTV.WEBRIP.[MPup] - series Verified 124.33 MB 24 15 2 weeks
Army of Darkness - Convention Invasion OS (2014) (Digital) (DR & Quinch-Empire).cbr (- Nem -) - misc Verified 95.91 MB 27 8 2 weeks