Public Invasion- Sex On Train Station (XXX)(iPod,PSP,Zune)

Download Torrent (1) Download Torrent (2)
Added February 19 2011
Categorymisc
Seeds / Peers2 / 39 Refresh Leechers
Size126.29 MB
Hashcbb950aea24c0bc23771d0d2a7c7f1e5cc8b113b
Files
125.89 MB Publicinvasion- Sex On Train Station.m4v
301.34 KB Screen.jpg
Trackers
http://tracker.thepiratebay.org/announce
udp://tracker.thepiratebay.org:80/announce
udp://tracker.openbittorrent.com:80/announce
udp://tracker.publicbt.com:80/announce
http://tracker.publicbt.com/announce
http://exodus.1337x.org/announce
Description
Screenshots:

http://54099306.linkbabes.com

Video
ID                               : 1
Format                           : AVC
Format/Info                      : Advanced Video Codec
Format profile                   : [email protected]
Format settings, CABAC           : No
Format settings, ReFrames        : 2 frames
Codec ID                         : avc1
Codec ID/Info                    : Advanced Video Coding
Duration                         : 42mn 20s
Bit rate mode                    : Variable
Bit rate                         : 350 Kbps
Width                            : 364 pixels
Height                           : 272 pixels
Display aspect ratio             : 4:3
Frame rate mode                  : Variable
Frame rate                       : 23.976 fps
Minimum frame rate               : 23.974 fps
Maximum frame rate               : 23.981 fps
Color space                      : YUV
Chroma subsampling               : 4:2:0
Bit depth                        : 8 bits
Scan type                        : Progressive
Bits/(Pixel*Frame)               : 0.147
Stream size                      : 106 MiB (84%)
Writing library                  : x264 core 112

Audio
ID                               : 2
Format                           : AAC
Format/Info                      : Advanced Audio Codec
Format profile                   : LC
Codec ID                         : 40
Duration                         : 42mn 20s
Bit rate mode                    : Variable
Bit rate                         : 62.3 Kbps
Maximum bit rate                 : 126 Kbps
Channel(s)                       : 2 channels
Channel positions                : Front: L R
Sampling rate                    : 44.1 KHz
Compression mode                 : Lossy
Stream size                      : 18.9 MiB (15%)
Language                         : English

More Torrents...

http://thepiratebay.org/user/punter21

Locations no locations

Related

FILE SIZE SEEDS PEERS ADDED
Arrow - 03x18 - Public Enemy 720p BrRip by maric62985 - series Verified 359.65 MB 10 9 3 hours
PublicAgent E285 Rock Chick Gets Fucked Outside In Public Place XXX SD MP4-RARBG - misc Verified 378.82 MB 33 38 4 days
Yuna Satsuki fucked in public - misc Verified 1.47 GB 1 17 5 days
Public Pick Ups - Julia De Lucia mp4 - misc Verified 276.65 MB 13 16 5 days
Public Agent - E283 - misc Verified 729.3 MB 0 0 1 week
Public Domain Turning Ideas to Dollars - misc Verified 780.8 KB 9 4 1 week
Public Domain Profits - misc Verified 137.6 KB 11 3 1 week
Testing Wars in the Public Schools A Forgotten History - misc Verified 806.4 KB 1 4 1 week
PickupFuck 15 01 02 Blonde Cutie Stars In Public Fuck For Cash XXX SD MP4-RARBG - misc Verified 388.82 MB 1 1 2 weeks
PickupFuck 15 01 23 Super Hot Public Porn Video With A Cheating Wife XXX SD MP4-RARBG - misc Verified 565.82 MB 1 0 2 weeks
Ugly War, Pretty Package - How CNN and Fox News Made the Invasion of Iraq High Concept - misc Verified 1.55 MB 5 7 2 weeks
Arrow - S03E18 - Public Enemy [1080p] [AE].srt - misc Verified 66.4 KB 10 0 2 weeks
Arrow - S03E18 - Public Enemy [1080p] [AE].mp4 - series Verified 675.3 MB 33 19 2 weeks
MDH - Sweet Amira (Out In Public) - misc Verified 100.56 MB 8 7 2 weeks
Public Agent, Ep 280 - Jenny HD 1080p - misc Verified 1.28 GB 7 37 2 weeks
ImmoralLive.15.03.27.Big.Titty.Jasmine.Jae.UK.Invasion.XXX.SD.MP4 - misc Verified 424.32 MB 3 2 2 weeks
Public Sector Ethics Theory and Applications [PDF][StormRG]{HTD15} - misc Verified 1.91 MB 30 8 2 weeks
Public Health Nursing, Thornbory [PDF][StormRG]{HTD15} - misc Verified 2.71 MB 17 9 2 weeks
Public Bang - Lynna Nilsson [HD-720p] - misc Verified 708.3 MB 7 33 2 weeks
Public Sex With a Beautiful Prostitute [wmv] - misc Verified 222.57 MB 30 64 3 weeks