Public Invasion- Sex On Train Station (XXX)(iPod,PSP,Zune)

Download Torrent (1) Download Torrent (2)
Added February 19 2011
Categorymisc
Seeds / Peers2 / 39 Refresh Leechers
Size126.29 MB
Hashcbb950aea24c0bc23771d0d2a7c7f1e5cc8b113b
Files
125.89 MB Publicinvasion- Sex On Train Station.m4v
301.34 KB Screen.jpg
Trackers
http://tracker.thepiratebay.org/announce
udp://tracker.thepiratebay.org:80/announce
udp://tracker.openbittorrent.com:80/announce
udp://tracker.publicbt.com:80/announce
http://tracker.publicbt.com/announce
http://exodus.1337x.org/announce
Description
Screenshots:

http://54099306.linkbabes.com

Video
ID                               : 1
Format                           : AVC
Format/Info                      : Advanced Video Codec
Format profile                   : [email protected]
Format settings, CABAC           : No
Format settings, ReFrames        : 2 frames
Codec ID                         : avc1
Codec ID/Info                    : Advanced Video Coding
Duration                         : 42mn 20s
Bit rate mode                    : Variable
Bit rate                         : 350 Kbps
Width                            : 364 pixels
Height                           : 272 pixels
Display aspect ratio             : 4:3
Frame rate mode                  : Variable
Frame rate                       : 23.976 fps
Minimum frame rate               : 23.974 fps
Maximum frame rate               : 23.981 fps
Color space                      : YUV
Chroma subsampling               : 4:2:0
Bit depth                        : 8 bits
Scan type                        : Progressive
Bits/(Pixel*Frame)               : 0.147
Stream size                      : 106 MiB (84%)
Writing library                  : x264 core 112

Audio
ID                               : 2
Format                           : AAC
Format/Info                      : Advanced Audio Codec
Format profile                   : LC
Codec ID                         : 40
Duration                         : 42mn 20s
Bit rate mode                    : Variable
Bit rate                         : 62.3 Kbps
Maximum bit rate                 : 126 Kbps
Channel(s)                       : 2 channels
Channel positions                : Front: L R
Sampling rate                    : 44.1 KHz
Compression mode                 : Lossy
Stream size                      : 18.9 MiB (15%)
Language                         : English

More Torrents...

http://thepiratebay.org/user/punter21

Locations no locations

Related

FILE SIZE SEEDS PEERS ADDED
Public Pick Ups - TAYLOR sands { Riding Dick in the Changing Room - 01.25.2015 - Mofos } NEW January 25, 2015 - misc Verified 258.65 MB 41 64 1 day
Molly Jane - Big Titty Public Fuck HD 1080p - misc Verified 1.45 GB 6 15 3 days
PublicBang.Kyra.Hot.Big.Tit.Babe.Gets.Wild.On.a.Public.Train.mp4s - misc Verified 366.57 MB 2 7 4 days
TeensLoveMoney - Molly Jane (Big Titty Public Fuck) [.mp4] - misc Verified 124.56 MB 44 25 1 week
Public Shots - misc Verified 114.79 MB 1 0 1 week
TeensLoveMoney Molly Jane Big Titty Public Fuck mp4 - misc Verified 382.57 MB 43 39 1 week
PluralSight Data Visualizations Using Tableau Public [SWEETI] - misc Verified 332.07 MB 1 8 1 week
[MyDirtyHobby] WetMary18 - PUBLIC - HOBBYNUTTE! billig, willig, vollgepritzt [.mp4] - misc Verified 137.07 MB 15 22 1 week
[TeensLoveMoney] Molly Jane (Big Titty Public Fuck / 13-01-2015) -={SPARROW}=- - misc Verified 382.32 MB 12 22 1 week
[PublicBang] Sharon Lee (Big Booty Asian anal banged in public / 13.01.2015) -={SPARROW}=- - misc Verified 381.32 MB 11 30 1 week
Public Affairs (2013) HDRip - misc Verified 3.28 GB 7 13 1 week
TeensLoveMoney - Molly Jane - Big Titty Public Fuck ** NEW (Team Skeet / January 13, 2015) NEW ** - misc Verified 382.65 MB 2 108 1 week
TeensLoveMoney 2015-01-13 Molly Jane Big Titty Public Fuck 720p MP4 5Mbps - misc Verified 749.15 MB 1 43 1 week
TeensLoveMoney 2015-01-13 Molly Jane Big Titty Public Fuck 540p MP4 2 6Mbps - misc Verified 382.32 MB 1 49 1 week
[PublicBang] - Sharon Lee - Big Booty Asian anal banged in public [BangBros ] - NEW 13 JANUARY 2015 NEW - misc Verified 381.07 MB 31 42 1 week
[PublicBang] Sharon Lee (Big Booty Asian anal banged in public - 13.01.15) rq.mp4 - misc Verified 381.15 MB 135 143 1 week
[MyDirtyHobby] Nightkiss66 - Public - Riskannter and gewagter Rastplatzfick! [.mp4] - misc Verified 243.82 MB 14 28 1 week
[PublicBang] BangBros - Aletta Ocean [Hot Fucking In Public] [.mp4] - misc Verified 373.65 MB 0 42 2 weeks
PublicBang - Ava Dalush - (Big Ass bouncing on the cock in public) (01.06.2015) [1080p] - misc Verified 1.42 GB 11 15 2 weeks
Public Invasion - Henessy - Fucking A Russian Hottie In The Middle Of A Soccer Field - misc Verified 232.57 MB 23 50 2 weeks