Public Invasion- Sex On Train Station (XXX)(iPod,PSP,Zune)

Download Torrent (1) Download Torrent (2)
Added February 19 2011
Categorymisc
Seeds / Peers2 / 39 Refresh Leechers
Size126.29 MB
Hashcbb950aea24c0bc23771d0d2a7c7f1e5cc8b113b
Files
125.89 MB Publicinvasion- Sex On Train Station.m4v
301.34 KB Screen.jpg
Trackers
http://tracker.thepiratebay.org/announce
udp://tracker.thepiratebay.org:80/announce
udp://tracker.openbittorrent.com:80/announce
udp://tracker.publicbt.com:80/announce
http://tracker.publicbt.com/announce
http://exodus.1337x.org/announce
Description
Screenshots:

http://54099306.linkbabes.com

Video
ID                               : 1
Format                           : AVC
Format/Info                      : Advanced Video Codec
Format profile                   : [email protected]
Format settings, CABAC           : No
Format settings, ReFrames        : 2 frames
Codec ID                         : avc1
Codec ID/Info                    : Advanced Video Coding
Duration                         : 42mn 20s
Bit rate mode                    : Variable
Bit rate                         : 350 Kbps
Width                            : 364 pixels
Height                           : 272 pixels
Display aspect ratio             : 4:3
Frame rate mode                  : Variable
Frame rate                       : 23.976 fps
Minimum frame rate               : 23.974 fps
Maximum frame rate               : 23.981 fps
Color space                      : YUV
Chroma subsampling               : 4:2:0
Bit depth                        : 8 bits
Scan type                        : Progressive
Bits/(Pixel*Frame)               : 0.147
Stream size                      : 106 MiB (84%)
Writing library                  : x264 core 112

Audio
ID                               : 2
Format                           : AAC
Format/Info                      : Advanced Audio Codec
Format profile                   : LC
Codec ID                         : 40
Duration                         : 42mn 20s
Bit rate mode                    : Variable
Bit rate                         : 62.3 Kbps
Maximum bit rate                 : 126 Kbps
Channel(s)                       : 2 channels
Channel positions                : Front: L R
Sampling rate                    : 44.1 KHz
Compression mode                 : Lossy
Stream size                      : 18.9 MiB (15%)
Language                         : English

More Torrents...

http://thepiratebay.org/user/punter21

Locations no locations

Related

FILE SIZE SEEDS PEERS ADDED
BRAZZERS - Asses in Public - Looking For Trouble - Camryn Kiss - Dakoda Brookes mkv - misc Verified 166.57 MB 2 37 9 hours
[MyDirtyHobby]Young-Devotion - Public-Spermageile-Fremdgeh-Fahrradtour! - misc Verified 302.57 MB 29 64 2 days
Sting The Last Ship at the Public Theater 2013 1080p BluRay DTS x264 - music Verified 2.31 GB 3 5 4 days
[Steve Coll] Ghost Wars : The Secret History of the CIA, Afghanistan, and Bin Laden, from the Soviet Invasion to September 10, 2001(epub){Zzzzz}[BЯ] - misc Verified 787.2 KB 2 0 5 days
[BrutalInvasion/TeenCoreClub]Lucille - Brutal Invasion - misc Verified 367.82 MB 10 22 1 week
Fucked hard in public 720p (Sensual Jane) - misc Verified 885.15 MB 0 0 1 week
Aleska Diamond' Sweet Ass Fucked In Public View 720p - misc Verified 777.65 MB 1 0 1 week
Public Pickups 14 (Mofos) (2015) - misc Verified 1.67 GB 1 21 1 week
Coolest Girlfriend Ever - Funny & Public & Used - misc Verified 16.81 MB 12 4 1 week
Public Nudity - European Lakes - misc Verified 115.56 MB 27 21 1 week
Public Pick Ups- Julie Skyhigh (Belgian Slut Gets Freaky) 2015-05-17 [480p][MP4] - misc Verified 320.5 MB 18 37 1 week
Mega Busty Chick - Selfies & Ride & Public - misc Verified 6.8 MB 26 15 1 week
Sexxx In Public 1 XXX DVDRip [Split Scenes] - misc Verified 626.32 MB 38 16 1 week
BrookesRoom - doublefeature public show (MFC) [.mp4] - misc Verified 265.07 MB 19 20 1 week
(2015) Damu The Fudgemunk - Public Assembly Volume 2 - music Verified 111.31 MB 1 0 2 weeks
Fantastic MILF with Tight Body - Public & Selfies & Sex - misc Verified 21.56 MB 15 15 2 weeks
[PickupFuck]Jessy-Rose - Screwing a hot girl in a public pool - misc Verified 232.57 MB 18 38 2 weeks
(Public Agent) 18 Year Old Gymnast Fucked In Changing Rooms (09MAY15) - misc Verified 633.3 MB 0 0 2 weeks
Public Disgrace - Candice Dare - godfatherporn [720p] - misc Verified 525.3 MB 0 0 2 weeks
Maric, Frisano - Public Relations.T. 1-2 [CBR] [POLISH] - misc Verified 203.54 MB 3 7 2 weeks