Public Invasion- Sex On Train Station (XXX)(iPod,PSP,Zune)

Download Anonymous Download Torrent (1) Download Torrent (2)
Added February 19 2011
Categorymisc
Seeds / Peers2 / 39 Refresh Leechers
Size126.29 MB
Hashcbb950aea24c0bc23771d0d2a7c7f1e5cc8b113b
Files
125.89 MB Publicinvasion- Sex On Train Station.m4v
301.34 KB Screen.jpg
Trackers
http://tracker.thepiratebay.org/announce
udp://tracker.thepiratebay.org:80/announce
udp://tracker.openbittorrent.com:80/announce
udp://tracker.publicbt.com:80/announce
http://tracker.publicbt.com/announce
http://exodus.1337x.org/announce
Description
Screenshots:

http://54099306.linkbabes.com

Video
ID                               : 1
Format                           : AVC
Format/Info                      : Advanced Video Codec
Format profile                   : [email protected]
Format settings, CABAC           : No
Format settings, ReFrames        : 2 frames
Codec ID                         : avc1
Codec ID/Info                    : Advanced Video Coding
Duration                         : 42mn 20s
Bit rate mode                    : Variable
Bit rate                         : 350 Kbps
Width                            : 364 pixels
Height                           : 272 pixels
Display aspect ratio             : 4:3
Frame rate mode                  : Variable
Frame rate                       : 23.976 fps
Minimum frame rate               : 23.974 fps
Maximum frame rate               : 23.981 fps
Color space                      : YUV
Chroma subsampling               : 4:2:0
Bit depth                        : 8 bits
Scan type                        : Progressive
Bits/(Pixel*Frame)               : 0.147
Stream size                      : 106 MiB (84%)
Writing library                  : x264 core 112

Audio
ID                               : 2
Format                           : AAC
Format/Info                      : Advanced Audio Codec
Format profile                   : LC
Codec ID                         : 40
Duration                         : 42mn 20s
Bit rate mode                    : Variable
Bit rate                         : 62.3 Kbps
Maximum bit rate                 : 126 Kbps
Channel(s)                       : 2 channels
Channel positions                : Front: L R
Sampling rate                    : 44.1 KHz
Compression mode                 : Lossy
Stream size                      : 18.9 MiB (15%)
Language                         : English

More Torrents...

http://thepiratebay.org/user/punter21

Locations no locations

Related

FILE SIZE SEEDS PEERS ADDED
Public Morals 2015 S01E01 VOSTFR HDTV x264-BRN [Seedbox] mp4 - series Verified 258.57 MB 5 8 12 hours
PublicAgent Fit slim redhead sucks and fucks in public - misc Verified 586.82 MB 0 0 19 hours
Public Morals S01e01, [XviD - Eng Mp3 - Sub Ita Eng] DLRip - A Fine Line - series Verified 404.79 MB 23 20 22 hours
Public Morals 2015 S01E02 Xvid-AJAXEN - series Verified 231.82 MB 0 0 1 day
Young Brunette Hottie Public Fucking on Park Road with Cumshot on Face - misc Verified 108.91 MB 12 12 1 day
PublicAgent Big tits brunette fucks for cash in public mp4 - misc Verified 684.32 MB 25 19 1 day
FakeCop Jasmine Cop lands Public sex loving policeman mp4 - misc Verified 368.82 MB 10 25 1 day
Public Morals 2015 S01E04 WEB-DL XviD-FUM[ettv] - series Verified 348.32 MB 3 1 1 day
Public Morals 2015 S01E03 WEB-DL XviD-FUM[ettv] - series Verified 347.32 MB 11 69 1 day
Public Morals 2015 S01E02 WEB-DL XviD-FUM[ettv] - series Verified 348.07 MB 27 172 1 day
Public Morals 2015 S01E01 Xvid-AJAXEN - series Verified 234.57 MB 16 4 1 day
Public Morals 2015 S01E01 HDTV x264-LOL[rartv] - series Verified 198.07 MB 53 9 1 day
Public Morals 2015 S01E01 XviD-AFG - series Verified 305.29 MB 8 3 1 day
Public Morals 2015 S01E01 HDTV x264-LOL - series Verified 198.04 MB 0 2 1 day
Public Morals 2015 S01E01 720p HDTV x265-RMTeam [720P][HEVC] - series Verified 155.58 MB 16 3 1 day
Public Morals 2015 S01E01 480p x264-mSD - series Verified 158.46 MB 1 3 1 day
PublicPickups / Public Pickups timea (A MAN CAN FUCK HIS SLUT ANYWHERE ANYTIME) - misc Verified 1.33 GB 1 7 2 days
PublicPickups / Public Pickups veronika (I TURBO-ED THE SUNSHINE GIRL) - misc Verified 1.45 GB 2 9 2 days
Invasion Of The Body Snatchers 1978 BRRip XviD MP3-RARBG - movies Verified 1.46 GB 0 0 3 days
PublicAgent - Big tits brunette fucks for cash in public (p1321) NEW 24 August 2015 - misc Verified 186.82 MB 0 0 3 days