Public Invasion- Sex On Train Station (XXX)(iPod,PSP,Zune)

Download Torrent (1) Download Torrent (2)
Added February 19 2011
Categorymisc
Seeds / Peers2 / 39 Refresh Leechers
Size126.29 MB
Hashcbb950aea24c0bc23771d0d2a7c7f1e5cc8b113b
Files
125.89 MB Publicinvasion- Sex On Train Station.m4v
301.34 KB Screen.jpg
Trackers
http://tracker.thepiratebay.org/announce
udp://tracker.thepiratebay.org:80/announce
udp://tracker.openbittorrent.com:80/announce
udp://tracker.publicbt.com:80/announce
http://tracker.publicbt.com/announce
http://exodus.1337x.org/announce
Description
Screenshots:

http://54099306.linkbabes.com

Video
ID                               : 1
Format                           : AVC
Format/Info                      : Advanced Video Codec
Format profile                   : [email protected]
Format settings, CABAC           : No
Format settings, ReFrames        : 2 frames
Codec ID                         : avc1
Codec ID/Info                    : Advanced Video Coding
Duration                         : 42mn 20s
Bit rate mode                    : Variable
Bit rate                         : 350 Kbps
Width                            : 364 pixels
Height                           : 272 pixels
Display aspect ratio             : 4:3
Frame rate mode                  : Variable
Frame rate                       : 23.976 fps
Minimum frame rate               : 23.974 fps
Maximum frame rate               : 23.981 fps
Color space                      : YUV
Chroma subsampling               : 4:2:0
Bit depth                        : 8 bits
Scan type                        : Progressive
Bits/(Pixel*Frame)               : 0.147
Stream size                      : 106 MiB (84%)
Writing library                  : x264 core 112

Audio
ID                               : 2
Format                           : AAC
Format/Info                      : Advanced Audio Codec
Format profile                   : LC
Codec ID                         : 40
Duration                         : 42mn 20s
Bit rate mode                    : Variable
Bit rate                         : 62.3 Kbps
Maximum bit rate                 : 126 Kbps
Channel(s)                       : 2 channels
Channel positions                : Front: L R
Sampling rate                    : 44.1 KHz
Compression mode                 : Lossy
Stream size                      : 18.9 MiB (15%)
Language                         : English

More Torrents...

http://thepiratebay.org/user/punter21

Locations no locations

Related

FILE SIZE SEEDS PEERS ADDED
Public Sex With a Beautiful Prostitute [wmv] - misc Verified 222.57 MB 30 64 5 days
[PublicSexAdventures] Leonora (Horny tourist goes for sex in public) SD -=NEW MARCH 24,2015=- - misc Verified 820 MB 93 64 5 days
POtHS - B I B L E - L I E S - Part 11 - The Real Truth - The Blood Moons and The Archon Invasion(1) - movies Verified 6.55 GB 12 11 1 week
Bang Bros Invasion 8 {New 2015} XXX-Split Scenes - misc Verified 1 GB 7 65 1 week
PublicBang - Blondie Fesser (Big Booty Nympho Slammed Out In Public) HD - misc Verified 919.32 MB 6 9 1 week
[MyPickupGirls.com] Rita-Moor - How to Talk a Shy Girl into NG Public Sex - misc Verified 846.82 MB 1 32 1 week
Taken 2 2012 UNRATED EXTENDED 720p BRRip x264 AC3-LEGi0N [Public - movies Verified 2.53 GB 8 6 1 week
MyFirstPublic - Gina Gerson - Public Sex [.mp4] - misc Verified 344.82 MB 10 20 1 week
PickupFuck - Yasmin - Hot public fuck on a sunny day ** NEW (March 13, 2015) NEW ** - misc Verified 379.65 MB 3 72 2 weeks
Big Tits In Public 720p (Kyra Hot) - misc Verified 693.65 MB 1 0 2 weeks
Make Money Selling Public Domain Stuff Skip The Hard Work! - misc Verified 295.07 MB 3 19 2 weeks
Bang Bros Invasion 8 2015 WEB-DL SPLIT SCENES MP4-RARBG - misc Verified 1 GB 1 0 2 weeks
Public Pickups 13 (2015) WEBRip - misc Verified 1.48 GB 0 1 2 weeks
Dark Invasion 2010 480p BluRay x264 mSD - movies Verified 459.07 MB 0 0 3 weeks
Public Pick Ups 2015-03-08 Felicia Hungarian Girl Strips for Cash 480p MP4 - misc Verified 318.25 MB 0 0 3 weeks
Czech Public Fucksters 5 (2013) WEBRip - misc Verified 2.74 GB 0 2 3 weeks
Stunning big-tit Latina Luna Star shows off her perfect ass in public.mp4 - misc Verified 83.64 MB 1 0 3 weeks
WWE-TNA-ROH-HOH VI West Coast Invasion 2014 WebDL x264-NoNeYa mp4 - series Verified 1.23 GB 5 31 3 weeks
Yasmin Lee and Eli Hunter / Close Encounters of a Kinky Kind- Yasmin Lee Alien Ass Invasion! (04.03.2015) SiteRip - misc Verified 494.15 MB 7 10 3 weeks
Public Agent - Suzy - E273 - Brunette Babe with an incredible Body [HD] - misc Verified 930.3 MB 7 25 3 weeks