Twisted desire 1996 (TV) [english][DVDRip]

Download Anonymous Download Torrent (1) Download Torrent (2)
Added April 18 2011
Categorymovies
Seeds / Peers1 / 1 Refresh Leechers
Size813.65 MB
Hash3904d08f4c9cca8a60b3afb36df7319fb1afc4ac
Files
813.46 MB Twisted.desire.1996.DivX.DVDRip [Zk2007].avi
Trackers
http://tracker.thepiratebay.org/announce
udp://tracker.thepiratebay.org:80/announce
udp://tracker.openbittorrent.com:80/announce
Description
Twisted Desire
A teenage temptress uses her sexuality to persuade a gullible ex-convict that they could live happily ever after - but only if he kills her parents first. Interesting drama based on a true story, giving Sabrina the Teenage Witch star Melissa Joan Hart a chance to prove her mettle as an actress and break away from her cutesy small-screen image. Daniel Baldwin, Isabella Hofmann, Jeremy Jordan and Meadow Sisto co-star.

TV Movie, made for NBC in 1996, thriller. Rated TV PG-15 (UK)

As the movie had never been released on DVD yet, so this WORKPRINT copy is in perfect DVD quality for you. Enjoy ;-)


Screenshot: http://img687.imageshack.us/i/f75285b9e192.png/

Format                           : AVI
Format/Info                      : Audio Video Interleave
File size                        : 813 MiB
Duration                         : 1h 25mn
Overall bit rate                 : 1 338 Kbps
Writing application              : VirtualDubMod 1.5.10.3 | www.virtualdub-fr.org || (build 2550/release)
Writing library                  : VirtualDubMod build 2550/release

Video
ID                               : 0
Format                           : MPEG-4 Visual
Format profile                   : Simple@L1
Format settings, BVOP            : No
Format settings, QPel            : No
Format settings, GMC             : No warppoints
Format settings, Matrix          : Default (H.263)
Codec ID                         : DIVX
Codec ID/Info                    : Project Mayo
Codec ID/Hint                    : DivX 4
Duration                         : 1h 25mn
Bit rate                         : 1 200 Kbps
Width                            : 704 pixels
Height                           : 576 pixels
Display aspect ratio             : 4:3
Frame rate                       : 25.000 fps
Standard                         : PAL
Color space                      : YUV
Chroma subsampling               : 4:2:0
Bit depth                        : 8 bits
Scan type                        : Progressive
Bits/(Pixel*Frame)               : 0.118
Stream size                      : 730 MiB (90%)
Writing library                  : avc2.0.11.1110

Audio
ID                               : 1
Format                           : MPEG Audio
Format version                   : Version 1
Format profile                   : Layer 3
Mode                             : Joint stereo
Mode extension                   : MS Stereo
Codec ID                         : 55
Codec ID/Hint                    : MP3
Duration                         : 1h 25mn
Bit rate mode                    : Constant
Bit rate                         : 128 Kbps
Channel(s)                       : 2 channels
Sampling rate                    : 48.0 KHz
Video delay                      : 1s 816ms
Stream size                      : 77.8 MiB (10%)
Alignment                        : Split accross interleaves
Interleave, duration             : 40 ms (1.00 video frame)
Interleave, preload duration     : 500 ms
Locations no locations

Related

FILE SIZE SEEDS PEERS ADDED
Catfish The TV Show S04E18 720p HDTV x264-W4F - series Verified 1.08 GB 0 10 20 hours
Harry Belafonte - Island In The Sun - (1996) -[FLAC] - [TFM] - music Verified 307.15 MB 16 26 1 day
America's Test Kitchen: The Complete TV Show Cookbook [2015]pdf - misc Verified 121.66 MB 0 0 1 day
TV Guide Magazine – 31 August 2015 - misc Verified 35.89 MB 21 3 1 day
The Chamber 1996 DVDrip x264 AC3 RoSubbed-PlaySD - movies Verified 1.1 GB 0 0 1 day
TMZ on TV 2015 08 28 (Eng Subs) SDTV x264-[2Maverick] - series Verified 248.82 MB 0 0 1 day
[Leopard-Raws] Denpa Kyoushi TV - 20 RAW (NTV 1280x720 x264 AAC).mp4 - anime Verified 426.15 MB 285 133 2 days
MARVEL's Guardians of the Galaxy (TV series) Season 1 ~ARIZONE - series Verified 89.54 MB 0 0 2 days
NJPW On AXS TV 28th August 2015 HDTV x264-TJ -={SPARROW}=- - series Verified 545.82 MB 5 8 2 days
City Hall (1996) DVDrip [H264] - movies Verified 941.07 MB 1 15 2 days
[AnimeRG] Ushio to Tora (TV) - 09 [720p] [Xcelent].mkv - anime Verified 277.15 MB 9 2 2 days
[hSa] Midori no Makibao [みどりのマキバオー] TV Episode 01-27 - anime Verified 1.88 GB 0 0 2 days
TMZ.on.TV.2015.08.27.(Eng.Subs).SDTV.x264-[2Maverick] - series Verified 252.57 MB 6 12 3 days
Scream 1996 BRRip Isl Texti avi - movies Verified 975.15 MB 1 0 3 days
Bottle Rocket 1996 1080p BluRay H264 AAC-RARBG - movies Verified 1.75 GB 0 0 3 days
TMZ.on.TV.2015.08.26.(Eng.Subs).SDTV.x264-[2Maverick] - series Verified 242.57 MB 30 17 3 days
SexArt – Bella Baby – Desire [HD-1080p] - misc Verified 860.3 MB 11 11 3 days
Scream The TV Series S01E09 HDTV x264-KILLERS[rartv] - series Verified 259.82 MB 87 16 4 days
Scream The TV Series S01E09 720p HDTV x265-RMTeam [720P][HEVC] - series Verified 161.46 MB 9 5 4 days
Scream The TV Series S01E09 XviD-AFG - series Verified 324.41 MB 3 3 4 days