Twisted desire 1996 (TV) [english][DVDRip]

Download Torrent (1) Download Torrent (2)
Added April 18 2011
Categorymovies
Seeds / Peers1 / 1 Refresh Leechers
Size813.65 MB
Hash3904d08f4c9cca8a60b3afb36df7319fb1afc4ac
Files
813.46 MB Twisted.desire.1996.DivX.DVDRip [Zk2007].avi
Trackers
http://tracker.thepiratebay.org/announce
udp://tracker.thepiratebay.org:80/announce
udp://tracker.openbittorrent.com:80/announce
Description
Twisted Desire
A teenage temptress uses her sexuality to persuade a gullible ex-convict that they could live happily ever after - but only if he kills her parents first. Interesting drama based on a true story, giving Sabrina the Teenage Witch star Melissa Joan Hart a chance to prove her mettle as an actress and break away from her cutesy small-screen image. Daniel Baldwin, Isabella Hofmann, Jeremy Jordan and Meadow Sisto co-star.

TV Movie, made for NBC in 1996, thriller. Rated TV PG-15 (UK)

As the movie had never been released on DVD yet, so this WORKPRINT copy is in perfect DVD quality for you. Enjoy ;-)


Screenshot: http://img687.imageshack.us/i/f75285b9e192.png/

Format                           : AVI
Format/Info                      : Audio Video Interleave
File size                        : 813 MiB
Duration                         : 1h 25mn
Overall bit rate                 : 1 338 Kbps
Writing application              : VirtualDubMod 1.5.10.3 | www.virtualdub-fr.org || (build 2550/release)
Writing library                  : VirtualDubMod build 2550/release

Video
ID                               : 0
Format                           : MPEG-4 Visual
Format profile                   : Simple@L1
Format settings, BVOP            : No
Format settings, QPel            : No
Format settings, GMC             : No warppoints
Format settings, Matrix          : Default (H.263)
Codec ID                         : DIVX
Codec ID/Info                    : Project Mayo
Codec ID/Hint                    : DivX 4
Duration                         : 1h 25mn
Bit rate                         : 1 200 Kbps
Width                            : 704 pixels
Height                           : 576 pixels
Display aspect ratio             : 4:3
Frame rate                       : 25.000 fps
Standard                         : PAL
Color space                      : YUV
Chroma subsampling               : 4:2:0
Bit depth                        : 8 bits
Scan type                        : Progressive
Bits/(Pixel*Frame)               : 0.118
Stream size                      : 730 MiB (90%)
Writing library                  : avc2.0.11.1110

Audio
ID                               : 1
Format                           : MPEG Audio
Format version                   : Version 1
Format profile                   : Layer 3
Mode                             : Joint stereo
Mode extension                   : MS Stereo
Codec ID                         : 55
Codec ID/Hint                    : MP3
Duration                         : 1h 25mn
Bit rate mode                    : Constant
Bit rate                         : 128 Kbps
Channel(s)                       : 2 channels
Sampling rate                    : 48.0 KHz
Video delay                      : 1s 816ms
Stream size                      : 77.8 MiB (10%)
Alignment                        : Split accross interleaves
Interleave, duration             : 40 ms (1.00 video frame)
Interleave, preload duration     : 500 ms
Locations no locations

Related

FILE SIZE SEEDS PEERS ADDED
Scream The TV Series S01E05 720p HDTV 2CH HEVC x265 piemonster - misc Verified 148.07 MB 20 26 13 hours
Scream The TV Series S01E05 HDTV XviD-FUM[ettv] - series Verified 347.32 MB 3 0 1 day
Star Wars - Tales Of The Jedi - The Golden Age Of The Sith (000-005) (1996-1997) (Digital) (AnPymGold-Empire) (- Nem -) - misc Verified 90.91 MB 1 0 1 day
Star Wars - Tales Of The Jedi - The Sith War (001-006) (1995-1996) (Digital) (AnPymGold-Empire) (- Nem -) - misc Verified 94.04 MB 1 0 1 day
TV & Satellite Week – 1 August 2015 - misc Verified 25.6 MB 20 2 1 day
Assholefever – Anina Silk – Wild Desire [HD-720p] - misc Verified 898.3 MB 1 2 1 day
Robben Ford - Blues Connotation (1996) [EAC-FLAC] - music Verified 288.65 MB 2 40 1 day
Mission: Impossible (1996) 720p BRRip 999MB - MkvCage - movies Verified 1000.3 MB 4 18 1 day
Osomatsu-san [おそ松さん] TV PV (720p) - anime Verified 10.55 MB 0 0 1 day
Sleepers 1996 1080p BluRay x264 DTS-FGT - movies Verified 10.83 GB 2 22 1 day
Scream The TV Series S01E02 720p HDTV x264-KILLERS[EtHD] - series Verified 1015.32 MB 69 43 1 day
Scream The TV Series S01E02 XviD-AFG - series Verified 281.54 MB 13 63 1 day
SFX & Total Film – TV Shows of All Time - misc Verified 99.04 MB 1 0 2 days
[얼티메이트] [150729] TVアニメ「Classroom☆Crisis」EDテーマ「アネモネ」/ClariS [期間限定アニメ盤] (320K) - anime Verified 33.77 MB 751 394 2 days
Albino Alligator (1996) 1080p BrRip x264 - YIFY - movies Verified 1.45 GB 284 354 3 days
Albino Alligator 1996 1080p BluRay H264 AAC-RARBG - movies Verified 1.79 GB 1 2 3 days
White Squall 1996 BRRip XviD MP3-RARBG - movies Verified 1.63 GB 1 4 3 days
White Squall 1996 720p BluRay H264 AAC-RARBG - movies Verified 1.56 GB 1 0 3 days
Production Operations Management 5th ed - William J. Stevenson (Irwin, 1996).pdf - misc Verified 100.54 MB 15 24 3 days
Vampire Girls - Bubblegum & Blood 001 (Talon - Angel Entertainment - 1996).cbr (- Nem -) - misc Verified 45.21 MB 2 3 3 days