Twisted desire 1996 (TV) [english][DVDRip]

Download Torrent (1) Download Torrent (2)
Added April 18 2011
Categorymovies
Seeds / Peers1 / 1 Refresh Leechers
Size813.65 MB
Hash3904d08f4c9cca8a60b3afb36df7319fb1afc4ac
Files
813.46 MB Twisted.desire.1996.DivX.DVDRip [Zk2007].avi
Trackers
http://tracker.thepiratebay.org/announce
udp://tracker.thepiratebay.org:80/announce
udp://tracker.openbittorrent.com:80/announce
Description
Twisted Desire
A teenage temptress uses her sexuality to persuade a gullible ex-convict that they could live happily ever after - but only if he kills her parents first. Interesting drama based on a true story, giving Sabrina the Teenage Witch star Melissa Joan Hart a chance to prove her mettle as an actress and break away from her cutesy small-screen image. Daniel Baldwin, Isabella Hofmann, Jeremy Jordan and Meadow Sisto co-star.

TV Movie, made for NBC in 1996, thriller. Rated TV PG-15 (UK)

As the movie had never been released on DVD yet, so this WORKPRINT copy is in perfect DVD quality for you. Enjoy ;-)


Screenshot: http://img687.imageshack.us/i/f75285b9e192.png/

Format                           : AVI
Format/Info                      : Audio Video Interleave
File size                        : 813 MiB
Duration                         : 1h 25mn
Overall bit rate                 : 1 338 Kbps
Writing application              : VirtualDubMod 1.5.10.3 | www.virtualdub-fr.org || (build 2550/release)
Writing library                  : VirtualDubMod build 2550/release

Video
ID                               : 0
Format                           : MPEG-4 Visual
Format profile                   : Simple@L1
Format settings, BVOP            : No
Format settings, QPel            : No
Format settings, GMC             : No warppoints
Format settings, Matrix          : Default (H.263)
Codec ID                         : DIVX
Codec ID/Info                    : Project Mayo
Codec ID/Hint                    : DivX 4
Duration                         : 1h 25mn
Bit rate                         : 1 200 Kbps
Width                            : 704 pixels
Height                           : 576 pixels
Display aspect ratio             : 4:3
Frame rate                       : 25.000 fps
Standard                         : PAL
Color space                      : YUV
Chroma subsampling               : 4:2:0
Bit depth                        : 8 bits
Scan type                        : Progressive
Bits/(Pixel*Frame)               : 0.118
Stream size                      : 730 MiB (90%)
Writing library                  : avc2.0.11.1110

Audio
ID                               : 1
Format                           : MPEG Audio
Format version                   : Version 1
Format profile                   : Layer 3
Mode                             : Joint stereo
Mode extension                   : MS Stereo
Codec ID                         : 55
Codec ID/Hint                    : MP3
Duration                         : 1h 25mn
Bit rate mode                    : Constant
Bit rate                         : 128 Kbps
Channel(s)                       : 2 channels
Sampling rate                    : 48.0 KHz
Video delay                      : 1s 816ms
Stream size                      : 77.8 MiB (10%)
Alignment                        : Split accross interleaves
Interleave, duration             : 40 ms (1.00 video frame)
Interleave, preload duration     : 500 ms
Locations no locations

Related

FILE SIZE SEEDS PEERS ADDED
The Fall 2013 S02E06 VOSTFR HDTV UK TV Serie x264-BRN [Seedbox] mp4 - series Verified 548.3 MB 0 1 23 hours
[hSa] Rainbow Sentai Robin [レインボー戦隊ロビン] TV Episode 03-05 - anime Verified 889.3 MB 35 34 1 day
Spider-Man - Legacy of Evil (1996) .cbr - misc Verified 19.1 MB 1 0 1 day
[hSa] Gegege no Kitarou (1985) [ゲゲゲの鬼太郎 ] TV Episode 90-95 - anime Verified 1.64 GB 0 48 1 day
Love and Other Catastrophes (1996) DVDrip [H264] - movies Verified 847.57 MB 5 10 2 days
Moonshiners S04E07 HDTV x264-TV - series Verified 345.15 MB 71 62 2 days
TMZ.on.TV.2014.12.16.SDTV.[2Maverick].mp4 - series Verified 269.15 MB 44 16 2 days
[Vivid-Asenshi] Akame ga Kill [TV 720p + ONAs] - anime Verified 9.87 GB 0 6 2 days
WWE Total Divas S03E08 HDTV x264 DX-TV -={SPARROW}=- - series Verified 508.07 MB 39 2 4 days
xbmc free live tv :-)STIFFLER(-: - software Verified 422.82 MB 59 57 4 days
Tomb Raider (1996), [1 CD - Eng] (Azione - Windows 7)TNTvillage - games Verified 533.07 MB 1 7 4 days
TMZ.on.TV.2014.11.20.SDTV.[2Maverick].mp4 - series Verified 251.07 MB 2 1 4 days
TMZ.on.TV.2014.11.21.SDTV.[2Maverick].mp4 - series Verified 275.15 MB 2 2 4 days
TMZ.on.TV.2014.11.19.SDTV.[2Maverick].mp4 - series Verified 251.32 MB 1 2 4 days
[Mnet] WINNER TV E10 END 140214 HDTV H264 720p-WITH mp4 - series Verified 758.3 MB 11 0 4 days
[Mnet] WINNER TV E09 140207 HDTV H264 720p-WITH mp4 - series Verified 805.3 MB 8 1 4 days
[Mnet] WINNER TV E07 140124 HDTV H264 720p-WITH mp4 - series Verified 803.3 MB 12 0 4 days
[Mnet] WINNER TV E06 140117 HDTV H264 720p-iPOP avi - series Verified 1.01 GB 0 0 4 days
Daylight (1996) BDRip 1080p Multi Audio [ORG DD 2.0 Hindi-Telugu-Eng5.1] Tariq Qureshi - movies Verified 3.13 GB 11 65 4 days
Executive Decision 1996 720p BluRay X264-AMIABLE - movies Verified 5.47 GB 11 11 4 days