Twisted desire 1996 (TV) [english][DVDRip]

Download Torrent (1) Download Torrent (2)
Added April 18 2011
Categorymovies
Seeds / Peers1 / 1 Refresh Leechers
Size813.65 MB
Hash3904d08f4c9cca8a60b3afb36df7319fb1afc4ac
Files
813.46 MB Twisted.desire.1996.DivX.DVDRip [Zk2007].avi
Trackers
http://tracker.thepiratebay.org/announce
udp://tracker.thepiratebay.org:80/announce
udp://tracker.openbittorrent.com:80/announce
Description
Twisted Desire
A teenage temptress uses her sexuality to persuade a gullible ex-convict that they could live happily ever after - but only if he kills her parents first. Interesting drama based on a true story, giving Sabrina the Teenage Witch star Melissa Joan Hart a chance to prove her mettle as an actress and break away from her cutesy small-screen image. Daniel Baldwin, Isabella Hofmann, Jeremy Jordan and Meadow Sisto co-star.

TV Movie, made for NBC in 1996, thriller. Rated TV PG-15 (UK)

As the movie had never been released on DVD yet, so this WORKPRINT copy is in perfect DVD quality for you. Enjoy ;-)


Screenshot: http://img687.imageshack.us/i/f75285b9e192.png/

Format                           : AVI
Format/Info                      : Audio Video Interleave
File size                        : 813 MiB
Duration                         : 1h 25mn
Overall bit rate                 : 1 338 Kbps
Writing application              : VirtualDubMod 1.5.10.3 | www.virtualdub-fr.org || (build 2550/release)
Writing library                  : VirtualDubMod build 2550/release

Video
ID                               : 0
Format                           : MPEG-4 Visual
Format profile                   : Simple@L1
Format settings, BVOP            : No
Format settings, QPel            : No
Format settings, GMC             : No warppoints
Format settings, Matrix          : Default (H.263)
Codec ID                         : DIVX
Codec ID/Info                    : Project Mayo
Codec ID/Hint                    : DivX 4
Duration                         : 1h 25mn
Bit rate                         : 1 200 Kbps
Width                            : 704 pixels
Height                           : 576 pixels
Display aspect ratio             : 4:3
Frame rate                       : 25.000 fps
Standard                         : PAL
Color space                      : YUV
Chroma subsampling               : 4:2:0
Bit depth                        : 8 bits
Scan type                        : Progressive
Bits/(Pixel*Frame)               : 0.118
Stream size                      : 730 MiB (90%)
Writing library                  : avc2.0.11.1110

Audio
ID                               : 1
Format                           : MPEG Audio
Format version                   : Version 1
Format profile                   : Layer 3
Mode                             : Joint stereo
Mode extension                   : MS Stereo
Codec ID                         : 55
Codec ID/Hint                    : MP3
Duration                         : 1h 25mn
Bit rate mode                    : Constant
Bit rate                         : 128 Kbps
Channel(s)                       : 2 channels
Sampling rate                    : 48.0 KHz
Video delay                      : 1s 816ms
Stream size                      : 77.8 MiB (10%)
Alignment                        : Split accross interleaves
Interleave, duration             : 40 ms (1.00 video frame)
Interleave, preload duration     : 500 ms
Locations no locations

Related

FILE SIZE SEEDS PEERS ADDED
Lupin Sansei (2015) [ルパン三世] TV PV (720p) - anime Verified 22.01 MB 24 8 10 hours
[hSa] Kaibutsu-kun (1980) [怪物くん] TV Episode 09-16 - anime Verified 795.3 MB 0 46 11 hours
Twisted Knights (Angels&Demons) - Lauren Calhoun.epub - misc Verified 211.2 KB 11 3 1 day
Shin Mitsubachi Maya no Bouken (新みつばちマーヤの冒険) TV 01-52 (RusDub) - anime Verified 2.63 GB 0 36 1 day
[Leopard-Raws] Denpa Kyoushi TV - 04 RAW (NTV 1280x720 x264 AAC).mp4 - anime Verified 350.15 MB 491 207 1 day
Mark Knopfler - Copenhagen 1996 (SBD) [FLAC] - music Verified 849.3 MB 71 49 2 days
[hSa] Meimon! Daisan Yakyuubu [名門! 第三野球部] TV Episode 08-14 - anime Verified 1.41 GB 0 40 2 days
[Vivid-Watashi] Aldnoah Zero [TV 720p] - anime Verified 8.35 GB 93 80 3 days
TV Portal Premium v1 1 15 (Mod Ad Free) APK[GLODLS] - software Verified 4.25 MB 10 3 3 days
[EroticaX] Alli Rae - A Dream of Desire (1080p) (24.04.2015) **NEW RELEASE** - misc Verified 1.16 GB 11 37 3 days
TMZ.on.TV.2015.04.22.SDTV.[2Maverick].mp4 - series Verified 273.65 MB 22 21 4 days
Sophie Turner@Academy of TV Arts & Sciences' presents 'An Evening with Game of Thrones' in Hollywood March 19,2013[Orion_Me] - misc Verified 3.64 MB 4 0 4 days
[얼티메이트] [150422] TVアニメ「SHOW BY ROCK!!」OPテーマ「青春はNon-Stop!」/プラズマジカ (320K+BK) - anime Verified 68.66 MB 258 50 4 days
[Leopard-Raws] Houkago no Pleiades TV - 03 RAW (ABC 1280x720 x264 AAC).mp4 - anime Verified 496.15 MB 480 334 4 days
Game of Thrones - Season 1 [tiki.tv] - series Verified 5.38 GB 1 3 4 days
Autopsy.S03E02.The.Last.Hours.Of.Robin.Williams.HDTV.x264-TV - series Verified 400.15 MB 21 40 5 days
Mahler - Symphony #7 - Abbdo - Lucerne - TV rip 1920x1080 i25 (mkv) - movies Verified 2.92 GB 1 0 5 days
Wolverine Encyclopedia (001-002) (1996) (c2c) (Meganubis) (- Nem -) - misc Verified 192.07 MB 1 0 5 days
[FFF] Yuuki Yuuna wa Yuusha de Aru [TV] - anime Verified 4.37 GB 81 69 5 days
[WhyNot] Galilei Donna [TV 720p AAC] - anime Verified 3.13 GB 5 33 5 days