Twisted desire 1996 (TV) [english][DVDRip]

Download Torrent (1) Download Torrent (2)
Added April 18 2011
Categorymovies
Seeds / Peers1 / 1 Refresh Leechers
Size813.65 MB
Hash3904d08f4c9cca8a60b3afb36df7319fb1afc4ac
Files
813.46 MB Twisted.desire.1996.DivX.DVDRip [Zk2007].avi
Trackers
http://tracker.thepiratebay.org/announce
udp://tracker.thepiratebay.org:80/announce
udp://tracker.openbittorrent.com:80/announce
Description
Twisted Desire
A teenage temptress uses her sexuality to persuade a gullible ex-convict that they could live happily ever after - but only if he kills her parents first. Interesting drama based on a true story, giving Sabrina the Teenage Witch star Melissa Joan Hart a chance to prove her mettle as an actress and break away from her cutesy small-screen image. Daniel Baldwin, Isabella Hofmann, Jeremy Jordan and Meadow Sisto co-star.

TV Movie, made for NBC in 1996, thriller. Rated TV PG-15 (UK)

As the movie had never been released on DVD yet, so this WORKPRINT copy is in perfect DVD quality for you. Enjoy ;-)


Screenshot: http://img687.imageshack.us/i/f75285b9e192.png/

Format                           : AVI
Format/Info                      : Audio Video Interleave
File size                        : 813 MiB
Duration                         : 1h 25mn
Overall bit rate                 : 1 338 Kbps
Writing application              : VirtualDubMod 1.5.10.3 | www.virtualdub-fr.org || (build 2550/release)
Writing library                  : VirtualDubMod build 2550/release

Video
ID                               : 0
Format                           : MPEG-4 Visual
Format profile                   : Simple@L1
Format settings, BVOP            : No
Format settings, QPel            : No
Format settings, GMC             : No warppoints
Format settings, Matrix          : Default (H.263)
Codec ID                         : DIVX
Codec ID/Info                    : Project Mayo
Codec ID/Hint                    : DivX 4
Duration                         : 1h 25mn
Bit rate                         : 1 200 Kbps
Width                            : 704 pixels
Height                           : 576 pixels
Display aspect ratio             : 4:3
Frame rate                       : 25.000 fps
Standard                         : PAL
Color space                      : YUV
Chroma subsampling               : 4:2:0
Bit depth                        : 8 bits
Scan type                        : Progressive
Bits/(Pixel*Frame)               : 0.118
Stream size                      : 730 MiB (90%)
Writing library                  : avc2.0.11.1110

Audio
ID                               : 1
Format                           : MPEG Audio
Format version                   : Version 1
Format profile                   : Layer 3
Mode                             : Joint stereo
Mode extension                   : MS Stereo
Codec ID                         : 55
Codec ID/Hint                    : MP3
Duration                         : 1h 25mn
Bit rate mode                    : Constant
Bit rate                         : 128 Kbps
Channel(s)                       : 2 channels
Sampling rate                    : 48.0 KHz
Video delay                      : 1s 816ms
Stream size                      : 77.8 MiB (10%)
Alignment                        : Split accross interleaves
Interleave, duration             : 40 ms (1.00 video frame)
Interleave, preload duration     : 500 ms
Locations no locations

Related

FILE SIZE SEEDS PEERS ADDED
[얼티메이트] [150225] TVアニメ「デス・パレード(Death Parade)」OPテーマ「Flyers」/BRADIO (320K+BK) - anime Verified 82.04 MB 534 241 11 hours
[얼티메이트] [150225] TVアニメ「デス・パレード(Death Parade)」OPテーマ「Flyers」/BRADIO (FLAC+BK) - anime Verified 159.07 MB 139 60 11 hours
Secrets and Lies 1996 720p BluRay X264-AMIABLE - movies Verified 5.37 GB 0 0 14 hours
[WeLiveTogether] Shae Summers, Dani Desire (Dance with desire / NEW ** 02.26.15) - misc Verified 289.82 MB 22 28 16 hours
Mojave Moon 1996 DVDRip XviD AC3-FWOLF - movies Verified 1.51 GB 1 1 1 day
Deathblow and Wolverine #001-#002 (1996-1997) (Meganubis) - misc Verified 112.79 MB 19 16 1 day
WWE In Your House 11 Buried Alive 1996 720p WebDL x264-NoNeYa mp4 - series Verified 1.79 GB 0 0 1 day
Thinner (1996)[BRRip.1080p.x264.DTS/AC3][Lektor i Napisy PL/Eng][Eng] - movies Verified 3.84 GB 3 11 1 day
40 Amazing Movies and TV Wallpapers [Mixed HD Res] [Set 17] - misc Verified 26.1 MB 13 6 1 day
[얼티메이트] [150128] TVアニメ「ISUCA-イスカ-」EDテーマ「Somebody to love」/TWO-FORMULA (320K) - anime Verified 52.02 MB 437 148 3 days
[얼티메이트] [150128] TVアニメ「ISUCA-イスカ-」EDテーマ「Somebody to love」/TWO-FORMULA (FLAC) - anime Verified 157.07 MB 121 47 3 days
JAV Censored NSPS-334 Long Sensual Collection - Women Are Always Slaves To Desire. - misc Verified 991.3 MB 32 85 3 days
JAV Censored SSR-070 Sister Of Attractive Too Slender Legs Have Combined Desire That Can Not Be Kept - misc Verified 1 GB 25 38 4 days
Constantine 2014 TV Series S01E13 VOSTFR HDTV x264-BRN [Seedbox] mp4 - series Verified 263.15 MB 4 3 4 days
THE KINKS - The Kinks The Final Concert 1996.06.15 Oslo, Norway FLAC & MP3 - music Verified 570.3 MB 0 0 5 days
Babes - Staci Carr - Youre My Desire ** NEW (February 20, 2015) NEW ** - misc Verified 153.32 MB 1 45 6 days
The Midnight Animals (ザ・ミッドナイト★アニマル) TV 01-03 - anime Verified 131.32 MB 1 33 6 days
TMZ.on.TV.2015.02.18.SDTV.[2Maverick].mp4 - series Verified 195.32 MB 20 11 1 week
[얼티메이트] [150218] TVアニメ「暁のヨナ(Akatsuki no Yona)」OP2テーマ「暁の華」/Cyntia (320K) - anime Verified 19.2 MB 251 69 1 week
[얼티메이트] [150128] TVアニメ「SHIROBAKO」オリジナルサウンドトラック1(OST 1) (320K+BK) - anime Verified 214.32 MB 281 133 1 week