Twisted desire 1996 (TV) [english][DVDRip]

Download Torrent (1) Download Torrent (2)
Added April 18 2011
Categorymovies
Seeds / Peers1 / 1 Refresh Leechers
Size813.65 MB
Hash3904d08f4c9cca8a60b3afb36df7319fb1afc4ac
Files
813.46 MB Twisted.desire.1996.DivX.DVDRip [Zk2007].avi
Trackers
http://tracker.thepiratebay.org/announce
udp://tracker.thepiratebay.org:80/announce
udp://tracker.openbittorrent.com:80/announce
Description
Twisted Desire
A teenage temptress uses her sexuality to persuade a gullible ex-convict that they could live happily ever after - but only if he kills her parents first. Interesting drama based on a true story, giving Sabrina the Teenage Witch star Melissa Joan Hart a chance to prove her mettle as an actress and break away from her cutesy small-screen image. Daniel Baldwin, Isabella Hofmann, Jeremy Jordan and Meadow Sisto co-star.

TV Movie, made for NBC in 1996, thriller. Rated TV PG-15 (UK)

As the movie had never been released on DVD yet, so this WORKPRINT copy is in perfect DVD quality for you. Enjoy ;-)


Screenshot: http://img687.imageshack.us/i/f75285b9e192.png/

Format                           : AVI
Format/Info                      : Audio Video Interleave
File size                        : 813 MiB
Duration                         : 1h 25mn
Overall bit rate                 : 1 338 Kbps
Writing application              : VirtualDubMod 1.5.10.3 | www.virtualdub-fr.org || (build 2550/release)
Writing library                  : VirtualDubMod build 2550/release

Video
ID                               : 0
Format                           : MPEG-4 Visual
Format profile                   : Simple@L1
Format settings, BVOP            : No
Format settings, QPel            : No
Format settings, GMC             : No warppoints
Format settings, Matrix          : Default (H.263)
Codec ID                         : DIVX
Codec ID/Info                    : Project Mayo
Codec ID/Hint                    : DivX 4
Duration                         : 1h 25mn
Bit rate                         : 1 200 Kbps
Width                            : 704 pixels
Height                           : 576 pixels
Display aspect ratio             : 4:3
Frame rate                       : 25.000 fps
Standard                         : PAL
Color space                      : YUV
Chroma subsampling               : 4:2:0
Bit depth                        : 8 bits
Scan type                        : Progressive
Bits/(Pixel*Frame)               : 0.118
Stream size                      : 730 MiB (90%)
Writing library                  : avc2.0.11.1110

Audio
ID                               : 1
Format                           : MPEG Audio
Format version                   : Version 1
Format profile                   : Layer 3
Mode                             : Joint stereo
Mode extension                   : MS Stereo
Codec ID                         : 55
Codec ID/Hint                    : MP3
Duration                         : 1h 25mn
Bit rate mode                    : Constant
Bit rate                         : 128 Kbps
Channel(s)                       : 2 channels
Sampling rate                    : 48.0 KHz
Video delay                      : 1s 816ms
Stream size                      : 77.8 MiB (10%)
Alignment                        : Split accross interleaves
Interleave, duration             : 40 ms (1.00 video frame)
Interleave, preload duration     : 500 ms
Locations no locations

Related

FILE SIZE SEEDS PEERS ADDED
American Desire - DevilGrrl - misc Verified 668.3 MB 1 6 19 hours
TMZ on TV 2015 05 20 SDTV x264-[2Maverick] - series Verified 236.57 MB 30 15 23 hours
BigTitCreamPie - Peta Jensen - Petas Insatiable Desire for Creampie ** NEW (Bang Bros / May 21, 2015) NEW ** - misc Verified 201.07 MB 12 22 1 day
WWE Smackdown 2015 05 20 720p WEB HD x264 DX-TV - series Verified 1.84 GB 45 3 1 day
catfish.the.tv.show.s04.untold.stories.special.hdtv.x264-w4f - series Verified 269.07 MB 34 12 1 day
Beautiful Girls (1996) 1080p BrRip x264 - YIFY - movies Verified 1.85 GB 0 0 1 day
40 Amazing Movies and TV Wallpapers [Mixed HD Res] [Set 22] - misc Verified 51.27 MB 37 26 1 day
[CENSORED] (SILK-058) - 大石美咲, 川原里奈 / 一徹(鈴木一徹), 月野帯人 - Deep Desire - misc Verified 1.05 GB 9 16 1 day
[Leopard-Raws] Houkago no Pleiades TV - 07 RAW (ABC 1280x720 x264 AAC).mp4 - anime Verified 491.65 MB 4 68 1 day
TMZ on TV 2015 05 19 SDTV x264-[2Maverick] - series Verified 226.07 MB 37 15 2 days
WWE Jerry Springer Too Hot For TV S01E04 All in the Family WEB-DL x264-WD -={SPARROW}= - series Verified 391.07 MB 41 72 2 days
Harlequin Desire - June 2015 - misc Verified 2.74 MB 21 4 2 days
ROH Global Wars 2015 05 15 Night 1 IPPV WEB HD.x264 DX-TV - series Verified 2.3 GB 327 41 2 days
Marvins.Room.1996.720p.BluRay.X264-AMIABLE - movies Verified 4.42 GB 0 0 2 days
Go For Speed [战龙四驱] TV Episode 26-52 - anime Verified 2.13 GB 3 8 2 days
The Original Elvis Presley Collection (1996) [Alac] 50 CD - music Verified 10.35 GB 1 79 3 days
The Rock (1996)[BRRip.1080p.x265-HEVC.AC3/DTS][Lektor i Napisy PL/Eng[Eng] - movies Verified 4 GB 3 5 3 days
TMZ.on.TV.2015.05.18.SDTV.x264-[2Maverick] - series Verified 233.82 MB 30 16 3 days
Graphicriver TV Pop-Out Creator 11474885 - software Verified 20.06 MB 1 0 3 days
DevilsFilm Dahlia Sky - Twisted Fantasies, Daydreams, Scene 2 [1920px] [x378] (18-05-2015) [jpg] - misc Verified 246.82 MB 14 30 4 days