Twisted desire 1996 (TV) [english][DVDRip]

Download Torrent (1) Download Torrent (2)
Added April 18 2011
Categorymovies
Seeds / Peers1 / 1 Refresh Leechers
Size813.65 MB
Hash3904d08f4c9cca8a60b3afb36df7319fb1afc4ac
Files
813.46 MB Twisted.desire.1996.DivX.DVDRip [Zk2007].avi
Trackers
http://tracker.thepiratebay.org/announce
udp://tracker.thepiratebay.org:80/announce
udp://tracker.openbittorrent.com:80/announce
Description
Twisted Desire
A teenage temptress uses her sexuality to persuade a gullible ex-convict that they could live happily ever after - but only if he kills her parents first. Interesting drama based on a true story, giving Sabrina the Teenage Witch star Melissa Joan Hart a chance to prove her mettle as an actress and break away from her cutesy small-screen image. Daniel Baldwin, Isabella Hofmann, Jeremy Jordan and Meadow Sisto co-star.

TV Movie, made for NBC in 1996, thriller. Rated TV PG-15 (UK)

As the movie had never been released on DVD yet, so this WORKPRINT copy is in perfect DVD quality for you. Enjoy ;-)


Screenshot: http://img687.imageshack.us/i/f75285b9e192.png/

Format                           : AVI
Format/Info                      : Audio Video Interleave
File size                        : 813 MiB
Duration                         : 1h 25mn
Overall bit rate                 : 1 338 Kbps
Writing application              : VirtualDubMod 1.5.10.3 | www.virtualdub-fr.org || (build 2550/release)
Writing library                  : VirtualDubMod build 2550/release

Video
ID                               : 0
Format                           : MPEG-4 Visual
Format profile                   : Simple@L1
Format settings, BVOP            : No
Format settings, QPel            : No
Format settings, GMC             : No warppoints
Format settings, Matrix          : Default (H.263)
Codec ID                         : DIVX
Codec ID/Info                    : Project Mayo
Codec ID/Hint                    : DivX 4
Duration                         : 1h 25mn
Bit rate                         : 1 200 Kbps
Width                            : 704 pixels
Height                           : 576 pixels
Display aspect ratio             : 4:3
Frame rate                       : 25.000 fps
Standard                         : PAL
Color space                      : YUV
Chroma subsampling               : 4:2:0
Bit depth                        : 8 bits
Scan type                        : Progressive
Bits/(Pixel*Frame)               : 0.118
Stream size                      : 730 MiB (90%)
Writing library                  : avc2.0.11.1110

Audio
ID                               : 1
Format                           : MPEG Audio
Format version                   : Version 1
Format profile                   : Layer 3
Mode                             : Joint stereo
Mode extension                   : MS Stereo
Codec ID                         : 55
Codec ID/Hint                    : MP3
Duration                         : 1h 25mn
Bit rate mode                    : Constant
Bit rate                         : 128 Kbps
Channel(s)                       : 2 channels
Sampling rate                    : 48.0 KHz
Video delay                      : 1s 816ms
Stream size                      : 77.8 MiB (10%)
Alignment                        : Split accross interleaves
Interleave, duration             : 40 ms (1.00 video frame)
Interleave, preload duration     : 500 ms
Locations no locations

Related

FILE SIZE SEEDS PEERS ADDED
[hSa] Heisei Tensai Bakabon [平成天才バカボン] TV Episode 36-40 - anime Verified 893.3 MB 0 0 15 hours
VA - Back To The 80'S (1996) MP3-DIVXTOTAL - music Verified 682.3 MB 320 223 17 hours
Jaco Pastorius - Curtain Call (1996) [EAC-FLAC] - music Verified 350.15 MB 1 42 18 hours
[ParadiseFilms]Ivana - Kinky Blonde Anal Desire - misc Verified 678.32 MB 9 22 23 hours
Twisted Passions 14 XXX DVDRip x264 SEXCAT - misc Verified 944.5 MB 1 0 1 day
WWE Jerry Springer Too Hot For TV S01E09 Deaths and Funerals WEB-DL 4500k x264-WD -={SPARROW}=- - series Verified 950.32 MB 15 21 1 day
Jamiroquai - Travelling Without Moving Work [FLAC+MP3](Big Papi) 1996 Funk Soul Jazz - music Verified 456.65 MB 1 0 1 day
Rod Stewart - 1996 - If We Fall In Love Tonight [EAC-FLAC] - music Verified 424.32 MB 0 0 2 days
Scream The TV Series S01E01 720p HDTV 2CH HEVC x265 piemonster - series Verified 166.82 MB 1 0 2 days
Jimmy Thackery & The Drivers - Drive To Survive (1996) [FLAC] - music Verified 301.15 MB 17 10 2 days
Scream The TV Series S01E01 720p HDTV x264-KILLERS - series Verified 939.07 MB 39 65 2 days
Scream The TV Series S01E01 HDTV XviD-FUM[ettv] - series Verified 349.57 MB 629 567 2 days
Scream The TV Series S01E01 iNTERNAL 720p HDTV x264-2HD - series Verified 1.01 GB 2 21 2 days
TV & Satellite Week – 4 July 2015 - misc Verified 23.08 MB 20 1 2 days
[얼티메이트] [150701] TVアニメ「冴えない彼女の育てかた(Saenai Heroine no Sodatekata)」Blessing Software Special CD Vol.5 (320K) - anime Verified 47.71 MB 155 74 2 days
[얼티메이트] [150701] TVアニメ「冴えない彼女の育てかた(Saenai Heroine no Sodatekata)」Blessing Software Special CD Vol.5 (FLAC) - anime Verified 113.54 MB 53 22 2 days
Charlie Parker - Jazz At The Philharmonic (1996) [EAC-FLAC] - music Verified 334.15 MB 2 32 2 days
Last Man Standing (1996)[BRrip.1080.x265-HEVC.AC3/DTS][Lektor i Napisy PL/ Eng][Eng] - movies Verified 4.85 GB 1 0 2 days
Varios - Mexico de Mis Amores (Big Papi) Latin Love Songs 1996 - music Verified 82.16 MB 12 5 3 days
Twisted Ashpalt (Asphalt Outlaw #1) by Blue Remy [RAL].epub - misc Verified 323.2 KB 4 1 4 days