Twisted desire 1996 (TV) [english][DVDRip]

Download Torrent (1) Download Torrent (2)
Added April 18 2011
Categorymovies
Seeds / Peers1 / 1 Refresh Leechers
Size813.65 MB
Hash3904d08f4c9cca8a60b3afb36df7319fb1afc4ac
Files
813.46 MB Twisted.desire.1996.DivX.DVDRip [Zk2007].avi
Trackers
http://tracker.thepiratebay.org/announce
udp://tracker.thepiratebay.org:80/announce
udp://tracker.openbittorrent.com:80/announce
Description
Twisted Desire
A teenage temptress uses her sexuality to persuade a gullible ex-convict that they could live happily ever after - but only if he kills her parents first. Interesting drama based on a true story, giving Sabrina the Teenage Witch star Melissa Joan Hart a chance to prove her mettle as an actress and break away from her cutesy small-screen image. Daniel Baldwin, Isabella Hofmann, Jeremy Jordan and Meadow Sisto co-star.

TV Movie, made for NBC in 1996, thriller. Rated TV PG-15 (UK)

As the movie had never been released on DVD yet, so this WORKPRINT copy is in perfect DVD quality for you. Enjoy ;-)


Screenshot: http://img687.imageshack.us/i/f75285b9e192.png/

Format                           : AVI
Format/Info                      : Audio Video Interleave
File size                        : 813 MiB
Duration                         : 1h 25mn
Overall bit rate                 : 1 338 Kbps
Writing application              : VirtualDubMod 1.5.10.3 | www.virtualdub-fr.org || (build 2550/release)
Writing library                  : VirtualDubMod build 2550/release

Video
ID                               : 0
Format                           : MPEG-4 Visual
Format profile                   : Simple@L1
Format settings, BVOP            : No
Format settings, QPel            : No
Format settings, GMC             : No warppoints
Format settings, Matrix          : Default (H.263)
Codec ID                         : DIVX
Codec ID/Info                    : Project Mayo
Codec ID/Hint                    : DivX 4
Duration                         : 1h 25mn
Bit rate                         : 1 200 Kbps
Width                            : 704 pixels
Height                           : 576 pixels
Display aspect ratio             : 4:3
Frame rate                       : 25.000 fps
Standard                         : PAL
Color space                      : YUV
Chroma subsampling               : 4:2:0
Bit depth                        : 8 bits
Scan type                        : Progressive
Bits/(Pixel*Frame)               : 0.118
Stream size                      : 730 MiB (90%)
Writing library                  : avc2.0.11.1110

Audio
ID                               : 1
Format                           : MPEG Audio
Format version                   : Version 1
Format profile                   : Layer 3
Mode                             : Joint stereo
Mode extension                   : MS Stereo
Codec ID                         : 55
Codec ID/Hint                    : MP3
Duration                         : 1h 25mn
Bit rate mode                    : Constant
Bit rate                         : 128 Kbps
Channel(s)                       : 2 channels
Sampling rate                    : 48.0 KHz
Video delay                      : 1s 816ms
Stream size                      : 77.8 MiB (10%)
Alignment                        : Split accross interleaves
Interleave, duration             : 40 ms (1.00 video frame)
Interleave, preload duration     : 500 ms
Locations no locations

Related

FILE SIZE SEEDS PEERS ADDED
Doamaiger D [ドアマイガーD] TV Episode 10-13 END (2014) - anime Verified 26.42 MB 0 0 3 hours
Hajime Ningen Gon (はじめ人間ゴン) TV 01-11 (PhilDub) - anime Verified 643.3 MB 0 17 7 hours
Flirting with Disaster (1996) 720p BRRip 850MB - MkvCage - movies Verified 851.3 MB 1 0 7 hours
Tesis (1996) - BDmux 720p x264 - Ita Esp AC3 - Multisub - Orgazmo - movies Verified 4.88 GB 1 17 17 hours
[Moesubs]_Fate_stay_night_[Unlimited_Blade_Works]_[TV][720p] - anime Verified 3.27 GB 1 7 21 hours
[Moesubs]_Fate_stay_night_[Unlimited_Blade_Works]_[TV][480p] - anime Verified 1.33 GB 1 2 21 hours
Jonathan Jeremiah - Oh Desire [2015] - music Verified 71.41 MB 8 6 1 day
[hSa] Gatapishi [ガタピシ] TV Episode 01 (1990) - anime Verified 23.17 MB 1 0 1 day
Viv Thomas I Dream Of Jo 3 - Desire And Deception Split Scenes SD - misc Verified 1.02 GB 1 23 1 day
TMZ.on.TV.2015.03.27.SDTV.[2Maverick].mp4 - series Verified 289.32 MB 17 12 2 days
[hSa] Biriken [ビリ犬] TV Episode 01 (1988) - anime Verified 44.96 MB 5 3 2 days
[hSa] Ultra B [ウルトラ B] TV Episode 01 (1987) - anime Verified 25.6 MB 13 1 2 days
Eternal Desire - Lora N Mowno - HD 71 [ 12 Megapixels ] - misc Verified 77.16 MB 8 9 2 days
Eternal Desire - Lora N Melom - HD 54 [ 12 Megapixels ] - misc Verified 67.79 MB 8 7 2 days
Eternal Desire - Lilu M Glim - HD 56 [ 12 Megapixels ] - misc Verified 69.91 MB 7 11 2 days
Eternal Desire - Lija Nokto - HD 70 [ 12 Megapixels ] - misc Verified 59.46 MB 6 7 2 days
[hSa] Dororonpa! [どろろんぱっ!] TV Episode 01 (1991) - anime Verified 83.91 MB 12 9 2 days
40 Amazing Movies and TV Wallpapers [Mixed HD Res] [Set 20] - misc Verified 32.64 MB 2 37 4 days
[Sewing] Soft Dolls and Animals Magazine - Winter 1996 - misc Verified 20.73 MB 15 5 4 days
Aussie Rock (1996) - music Verified 262.65 MB 2 37 4 days