Login or Register
Add to your bookmarks
Fuck Hard 18 - Ashlyn Rae (XXX)(iPod,PSP,Zune) torrent
DOWNLOAD TORRENT STREAM IN HD ►
Category : Misc » Others
Added : 06 Feb 2011  
Seeds : 2
Peers : 40
Hash : 369851bd4879bb817cb86658140bc751c503d0c0
Size : 165.29 MB
Downloads : 47 times
Secure download hide your personal activity while downloading torrents with btguard

Report Copyright Infringement


Screenshot

http://84448b75.drstickyfingers.com

Video
ID                               : 1
Format                           : AVC
Format/Info                      : Advanced Video Codec
Format profile                   : [email protected]
Format settings, CABAC           : No
Format settings, ReFrames        : 2 frames
Codec ID                         : avc1
Codec ID/Info                    : Advanced Video Coding
Duration                         : 46mn 10s
Bit rate mode                    : Variable
Bit rate                         : 400 Kbps
Width                            : 480 pixels
Height                           : 272 pixels
Display aspect ratio             : 16:9
Frame rate mode                  : Variable
Frame rate                       : 23.976 fps
Minimum frame rate               : 23.974 fps
Maximum frame rate               : 23.981 fps
Color space                      : YUV
Chroma subsampling               : 4:2:0
Bit depth                        : 8 bits
Scan type                        : Progressive
Bits/(Pixel*Frame)               : 0.128
Stream size                      : 132 MiB (80%)
Writing library                  : x264 core 112

Audio
ID                               : 2
Format                           : AAC
Format/Info                      : Advanced Audio Codec
Format profile                   : LC
Codec ID                         : 40
Duration                         : 46mn 11s
Bit rate mode                    : Variable
Bit rate                         : 96.0 Kbps
Maximum bit rate                 : 109 Kbps
Channel(s)                       : 2 channels
Channel positions                : Front: L R
Sampling rate                    : 48.0 KHz
Compression mode                 : Lossy
Stream size                      : 31.7 MiB (19%)
Language                         : English

Screenshot

http://84448b75.drstickyfingers.com

Fuck Hard 18 - Ashlyn Rae (XXX)(iPod,PSP,Zune) torrent trackers
public - http://tracker.thepiratebay.org/announce

public - udp://tracker.thepiratebay.org:80/announce

public - udp://tracker.openbittorrent.com:80/announce

public - udp://tracker.publicbt.com:80/announce

public - http://tracker.publicbt.com/announce

public - http://exodus.1337x.org/announce

Fuck Hard 18 - Ashlyn Rae (XXX)(iPod,PSP,Zune) torrent internal files
  • image Fuck Hard 18 - Ashlyn Rae
    • image Ashlyn Rae Screen.jpg    224.13 KB
    • image Ashlyn Rae.m4v    164.99 MB

No comments
You must log in to add a comment.

Počítadlo.cz TurkeyRank.Com - Pagerank Servisi TOPlist