Login or Register
Add to your bookmarks
Massage Creep - Jennifer White (XXX)(iPod,PSP,Zune) torrent
DOWNLOAD TORRENT STREAM IN HD ►
Category : Misc » Others
Added : 07 Feb 2011  
Seeds : 1
Peers : 3
Hash : 85355a84e7445fb721198c74703a93102f16c626
Size : 186.82 MB
Downloads : 98 times
Secure download hide your personal activity while downloading torrents with btguard

Report Copyright Infringement


Screenshot

http://8ba9e974.poontown.net

Video
ID                               : 1
Format                           : AVC
Format/Info                      : Advanced Video Codec
Format profile                   : Baseline@L2.1
Format settings, CABAC           : No
Format settings, ReFrames        : 2 frames
Codec ID                         : avc1
Codec ID/Info                    : Advanced Video Coding
Duration                         : 56mn 55s
Bit rate mode                    : Variable
Bit rate                         : 400 Kbps
Width                            : 480 pixels
Height                           : 272 pixels
Display aspect ratio             : 16:9
Frame rate mode                  : Variable
Frame rate                       : 23.976 fps
Minimum frame rate               : 23.974 fps
Maximum frame rate               : 23.981 fps
Color space                      : YUV
Chroma subsampling               : 4:2:0
Bit depth                        : 8 bits
Scan type                        : Progressive
Bits/(Pixel*Frame)               : 0.128
Stream size                      : 163 MiB (87%)
Writing library                  : x264 core 112


Audio
ID                               : 2
Format                           : AAC
Format/Info                      : Advanced Audio Codec
Format profile                   : LC
Codec ID                         : 40
Duration                         : 56mn 55s
Bit rate mode                    : Variable
Bit rate                         : 54.5 Kbps
Maximum bit rate                 : 64.2 Kbps
Channel(s)                       : 2 channels
Channel positions                : Front: L R
Sampling rate                    : 44.1 KHz
Compression mode                 : Lossy
Stream size                      : 22.2 MiB (12%)
Language                         : English

Screenshot

http://8ba9e974.poontown.net


Massage Creep - Jennifer White (XXX)(iPod,PSP,Zune) torrent trackers
public - http://tracker.thepiratebay.org/announce

public - udp://tracker.thepiratebay.org:80/announce

public - udp://tracker.openbittorrent.com:80/announce

public - udp://tracker.publicbt.com:80/announce

public - http://tracker.publicbt.com/announce

public - http://exodus.1337x.org/announce

Massage Creep - Jennifer White (XXX)(iPod,PSP,Zune) torrent internal files
  • image Massage Creep - Jennifer White
    • image Jennifer White.jpg    285.43 KB
    • image Jennifer White.m4v    186.43 MB

No comments
You must log in to add a comment.

Počítadlo.cz TurkeyRank.Com - Pagerank Servisi TOPlist