Login or Register
Add to your bookmarks
Public Invasion- Sex On Train Station (XXX)(iPod,PSP,Zune) torrent
DOWNLOAD TORRENT STREAM IN HD ►
Category : Misc » Others
Added : 19 Feb 2011  
Seeds : 2
Peers : 39
Hash : cbb950aea24c0bc23771d0d2a7c7f1e5cc8b113b
Size : 126.29 MB
Downloads : 74 times
Secure download hide your personal activity while downloading torrents with btguard

Report Copyright Infringement


Screenshots:

http://54099306.linkbabes.com

Video
ID                               : 1
Format                           : AVC
Format/Info                      : Advanced Video Codec
Format profile                   : Baseline@L1.3
Format settings, CABAC           : No
Format settings, ReFrames        : 2 frames
Codec ID                         : avc1
Codec ID/Info                    : Advanced Video Coding
Duration                         : 42mn 20s
Bit rate mode                    : Variable
Bit rate                         : 350 Kbps
Width                            : 364 pixels
Height                           : 272 pixels
Display aspect ratio             : 4:3
Frame rate mode                  : Variable
Frame rate                       : 23.976 fps
Minimum frame rate               : 23.974 fps
Maximum frame rate               : 23.981 fps
Color space                      : YUV
Chroma subsampling               : 4:2:0
Bit depth                        : 8 bits
Scan type                        : Progressive
Bits/(Pixel*Frame)               : 0.147
Stream size                      : 106 MiB (84%)
Writing library                  : x264 core 112

Audio
ID                               : 2
Format                           : AAC
Format/Info                      : Advanced Audio Codec
Format profile                   : LC
Codec ID                         : 40
Duration                         : 42mn 20s
Bit rate mode                    : Variable
Bit rate                         : 62.3 Kbps
Maximum bit rate                 : 126 Kbps
Channel(s)                       : 2 channels
Channel positions                : Front: L R
Sampling rate                    : 44.1 KHz
Compression mode                 : Lossy
Stream size                      : 18.9 MiB (15%)
Language                         : English

More Torrents...

http://thepiratebay.org/user/punter21

Public Invasion- Sex On Train Station (XXX)(iPod,PSP,Zune) torrent trackers
public - http://tracker.thepiratebay.org/announce

public - udp://tracker.thepiratebay.org:80/announce

public - udp://tracker.openbittorrent.com:80/announce

public - udp://tracker.publicbt.com:80/announce

public - http://tracker.publicbt.com/announce

public - http://exodus.1337x.org/announce

Public Invasion- Sex On Train Station (XXX)(iPod,PSP,Zune) torrent internal files
  • image PublicInvasion- Sex On Train Station
    • image Publicinvasion- Sex On Train Station.m4v    125.89 MB
    • image Screen.jpg    301.34 KB

No comments
You must log in to add a comment.

Počítadlo.cz TurkeyRank.Com - Pagerank Servisi TOPlist